<?xml version="1.0" standalone="no"?>
<!DOCTYPE svg PUBLIC "-//W3C//DTD SVG 1.1//EN" "http://www.w3.org/Graphics/SVG/1.1/DTD/svg11.dtd" >
<svg xmlns="http://www.w3.org/2000/svg" xmlns:xlink="http://www.w3.org/1999/xlink" version="1.1">
<metadata>
Created by FontForge 20201107 at Sun Apr 30 20:17:55 2017
 By 
Copyright (c) 2012 by Hagilda. All rights reserved.
</metadata>
<defs>
<font id="Alef-Regular" horiz-adv-x="0" >
  <font-face 
    font-family="Alef"
    font-weight="400"
    font-stretch="normal"
    units-per-em="2048"
    panose-1="0 0 5 0 0 0 0 0 0 0"
    ascent="1638"
    descent="-410"
    x-height="1040"
    cap-height="1438"
    bbox="-102 -682 1854 2067"
    underline-thickness="150"
    underline-position="-217"
    unicode-range="U+000D-FB4B"
  />
<missing-glyph horiz-adv-x="748" 
d="M68 0v1365h544v-1365h-544zM136 68h408v1229h-408v-1229z" />
    <glyph glyph-name="uniFB01" unicode="fi" horiz-adv-x="1541" 
d="M451 1040h902v-1040h-172v895h-730v-750h334v-145h-682v145h174v750h-174v145h174v113q0 74 14 128t49 100t102.5 69.5t166.5 23.5q129 0 307 -43l-31 -141q-168 35 -256 35q-43 0 -72.5 -4.5t-49.5 -18t-31 -28.5t-16.5 -45t-7 -57t-1.5 -75v-57zM1187 1248
q-34 32 -34 81q0 48 34 82q34 32 82 32q46 0 80 -32q33 -35 33 -82q0 -48 -33 -81q-34 -34 -80 -34q-48 0 -82 34z" />
    <glyph glyph-name="uniFB02" unicode="fl" horiz-adv-x="1513" 
d="M1179 1440h172v-1440h-1248v145h174v750h-174v145h174v113q0 74 14 128t49 100t102.5 69.5t166.5 23.5q129 0 307 -43l-31 -141q-168 35 -256 35q-43 0 -72.5 -4.5t-49.5 -18t-31 -28.5t-16.5 -45t-7 -57t-1.5 -75v-57h334v-145h-334v-750h728v1295z" />
    <glyph glyph-name=".notdef" horiz-adv-x="748" 
d="M68 0v1365h544v-1365h-544zM136 68h408v1229h-408v-1229z" />
    <glyph glyph-name="glyph1" horiz-adv-x="2048" 
 />
    <glyph glyph-name="glyph1" horiz-adv-x="2048" 
 />
    <glyph glyph-name="uni000D" unicode="&#xd;" horiz-adv-x="2048" 
 />
    <glyph glyph-name="space" unicode=" " horiz-adv-x="580" 
 />
    <glyph glyph-name="exclam" unicode="!" horiz-adv-x="645" 
d="M150 1363q35 54 74 75.5t81 21.5q34 0 58 -14t39 -37.5t22 -55.5t7 -68l-41 -863l-119 -34l-40 808zM323 224q25 0 47.5 -9.5t39 -26t26 -39t9.5 -47.5q0 -24 -9.5 -46t-26 -39t-39 -27t-47.5 -10q-24 0 -46.5 9.5t-39.5 26t-27 39t-10 47.5t10 47.5t26.5 39t39 26
t47.5 9.5z" />
    <glyph glyph-name="quotedbl" unicode="&#x22;" horiz-adv-x="923" 
d="M126 1409q42 30 72.5 41t61.5 11q55 0 88.5 -21t48 -54.5t11.5 -76.5t-21 -87q-12 -28 -31.5 -67t-42 -80t-45 -80.5t-38.5 -68.5h-134l87 289zM527 1409q42 30 72 41t61 11q54 0 87 -21t48 -55t13 -77t-20 -86q-12 -28 -32 -67t-42.5 -80t-45 -80.5t-38.5 -68.5h-134
l87 289z" />
    <glyph glyph-name="numbersign" unicode="#" horiz-adv-x="1291" 
d="M913 946h110l-78 -213h236l-39 -105h-232l-77 -206h235l-37 -107h-237l-78 -211h-109l70 211h-219l-80 -211h-117l80 211h-231l37 107h231l78 206h-240l41 105h238l78 213h108l-78 -213h232zM718 422l78 206h-230l-71 -206h223z" />
    <glyph glyph-name="dollar" unicode="$" horiz-adv-x="1170" 
d="M654 1302v-475q76 -21 130 -42.5t107.5 -55.5t86 -76.5t52.5 -105.5t20 -143q0 -181 -106.5 -287t-289.5 -133v-115h-145v107q-202 4 -389 85l61 145q168 -69 328 -76v557q-74 20 -126.5 41.5t-101.5 53.5t-79.5 73t-49.5 99.5t-22 133.5q0 154 103 253t276 116v114h145
v-115q164 -15 315 -82l-61 -145q-144 61 -254 73zM509 868v433q-90 -14 -145 -66.5t-55 -146.5q0 -93 47.5 -139.5t152.5 -80.5zM654 646v-503q103 24 160 91t57 170q0 101 -53 153.5t-164 88.5z" />
    <glyph glyph-name="percent" unicode="%" horiz-adv-x="1217" 
d="M354 1326q43 0 83.5 -13t70.5 -46q31 -32 50.5 -92t19.5 -144q0 -56 -8.5 -93t-23.5 -69q-16 -32 -37 -53.5t-46 -34.5t-52.5 -18t-56.5 -5q-44 0 -84 12.5t-72 44.5q-31 32 -50.5 87.5t-19.5 138.5q0 84 19.5 139t50.5 87q32 33 72 46t84 13zM354 1245
q-32 0 -56.5 -11.5t-40.5 -37.5t-25 -64t-9 -91q0 -54 9 -91.5t25 -63.5q16 -25 40.5 -37t56.5 -12q30 0 54.5 12t40.5 37q16 26 25 63.5t9 91.5q0 53 -9 91t-25 64t-40.5 37.5t-54.5 11.5zM1059 1065v-125l-901 -674v125zM865 581q43 0 83.5 -13t70.5 -46q31 -32 50.5 -87
t19.5 -139q0 -56 -8.5 -98t-23.5 -74q-16 -32 -37 -53.5t-46 -34.5t-52.5 -18t-56.5 -5q-44 0 -84 12.5t-72 44.5q-31 32 -50.5 87.5t-19.5 138.5q0 84 19.5 139t50.5 87q32 33 72 46t84 13zM865 500q-32 0 -56.5 -11.5t-40.5 -37.5t-25 -64t-9 -91q0 -54 9 -91.5t25 -63.5
q16 -25 40.5 -37t56.5 -12q30 0 54.5 12t40.5 37q16 26 25 63.5t9 91.5q0 53 -9 91t-25 64t-40.5 37.5t-54.5 11.5z" />
    <glyph glyph-name="ampersand" unicode="&#x26;" horiz-adv-x="1505" 
d="M1352 298l98 -75q-25 -49 -41 -77t-42.5 -64.5t-50.5 -56t-58 -33.5t-73 -14q-68 0 -123 31t-129 122q-178 -155 -414 -155q-57 0 -110 10q-146 26 -227.5 123t-81.5 242q0 70 15.5 125t56 110t94 104.5t144.5 122.5q-91 119 -121 187.5t-30 137.5q0 139 90 230.5
t258 91.5q130 0 311 -43l-41 -135q-11 2 -50.5 11t-51 11t-38.5 6.5t-46.5 6t-40.5 1.5q-110 0 -158.5 -49t-48.5 -128q0 -42 23.5 -92t82.5 -134l410 -529q76 121 101 271h-131v137h448v-137h-182q-44 -232 -145 -389q54 -72 85.5 -104t58.5 -32q35 0 70.5 38.5t87.5 127.5
zM840 252l-344 449q-104 -76 -160.5 -152.5t-56.5 -174.5q0 -107 70.5 -173t185.5 -66q70 0 151 29.5t154 87.5z" />
    <glyph glyph-name="quotesingle" unicode="'" horiz-adv-x="557" 
d="M145 1409q42 30 72 41t61 11q54 0 87 -21t48 -55t12.5 -77t-20.5 -86q-11 -28 -31 -67t-42.5 -80t-45 -80.5t-38.5 -68.5h-134l87 289z" />
    <glyph glyph-name="parenleft" unicode="(" horiz-adv-x="781" 
d="M620 1323q-63 -90 -108.5 -172t-75.5 -168.5t-44 -183t-14 -215.5t14 -215.5t44 -183t75.5 -168.5t108.5 -172l-52 -54q-86 65 -155.5 149t-118.5 184.5t-76 216t-27 243.5t27 243.5t76 216t118.5 184.5t155.5 149z" />
    <glyph glyph-name="parenright" unicode=")" horiz-adv-x="781" 
d="M161 -155q63 90 108.5 172t75.5 168.5t44 183t14 215.5t-14 215.5t-44 183t-75.5 168.5t-108.5 172l52 54q85 -65 155 -149t119 -184.5t76 -216t27 -243.5t-27 -243.5t-76 -216t-119 -184.5t-155 -149z" />
    <glyph glyph-name="asterisk" unicode="*" horiz-adv-x="1099" 
d="M502 1439h100l12 -251l239 64l32 -94l-234 -88l138 -207l-80 -58l-157 195l-157 -195l-79 58l136 209l-235 88l32 94l241 -66z" />
    <glyph glyph-name="plus" unicode="+" horiz-adv-x="1130" 
d="M979 608v-137h-346v-345h-137v345h-345v137h346v346h137v-346h345z" />
    <glyph glyph-name="comma" unicode="," horiz-adv-x="698" 
d="M205 177q38 27 65.5 37t55.5 10q49 0 79 -19.5t43.5 -50t11.5 -69.5t-18 -78q-11 -26 -29 -61t-38 -72.5t-40.5 -73.5t-35.5 -62h-122l79 262z" />
    <glyph glyph-name="hyphen" unicode="-" horiz-adv-x="1164" 
d="M204 632h756v-148h-756v148z" />
    <glyph glyph-name="period" unicode="." horiz-adv-x="645" 
d="M323 224q25 0 47.5 -9t39.5 -26q35 -35 35 -87q0 -51 -35 -86q-17 -17 -39.5 -26.5t-47.5 -9.5t-47 9.5t-39 26.5t-26.5 39t-9.5 47t9.5 47.5t26.5 39.5q35 35 86 35z" />
    <glyph glyph-name="slash" unicode="/" horiz-adv-x="1147" 
d="M849 1438h159l-710 -1438h-159z" />
    <glyph glyph-name="zero" unicode="0" horiz-adv-x="1247" 
d="M624 1081q114 0 212 -43.5t169 -118.5t111.5 -176t40.5 -215q0 -115 -40.5 -216t-111.5 -176t-169 -118.5t-212 -43.5q-115 0 -212.5 43.5t-169 118.5t-112 176t-40.5 216q0 114 40.5 215t112 176t169 118.5t212.5 43.5zM624 923q-78 0 -144 -30.5t-114 -84t-75 -125.5
t-27 -155t27 -155.5t75 -126t114 -84t144 -30.5t144 30.5t113.5 84t74.5 126t27 155.5t-27 155t-74.5 125.5t-113.5 84t-144 30.5z" />
    <glyph glyph-name="one" unicode="1" horiz-adv-x="759" 
d="M90 923l358 160l87 -44v-1039h-174v874l-210 -89z" />
    <glyph glyph-name="two" unicode="2" horiz-adv-x="953" 
d="M501 1083q74 0 135.5 -16.5t111 -51.5t77.5 -94.5t28 -138.5q0 -65 -15 -114q-28 -88 -124 -147q-48 -30 -209 -100l-5 -2.5t-5 -2t-5 -2.5q-58 -25 -74.5 -33t-53 -33t-47 -47t-22 -61t-11.5 -90h551v-150h-723v140q0 76 18 136.5t46 102.5t78.5 78.5t100 61t124.5 54.5
q57 23 86 37t60 37.5t43.5 54.5t12.5 74q0 85 -53 124t-142 39q-143 0 -301 -77l-54 129q181 92 372 92z" />
    <glyph glyph-name="three" unicode="3" horiz-adv-x="977" 
d="M554 901h-158q-89 0 -143 8q-80 12 -145 37l57 143q70 -27 133 -35q64 -8 205 -8h264v-114l-254 -314q76 6 139 -13t105.5 -55.5t72.5 -86.5t43.5 -105.5t13.5 -113.5q0 -337 -423 -462q-172 -51 -374 -57v155q186 12 302 44q150 42 235.5 120t85.5 208q0 112 -61.5 171
t-167.5 59q-72 0 -157 -31l-48 95z" />
    <glyph glyph-name="four" unicode="4" horiz-adv-x="1129" 
d="M515 1083l165 -36q-15 -135 -93 -291l-304 -606h420v276h168v-276h188v-150h-188v-274h-168v274h-593l-40 124l328 648q56 111 77 163.5t40 147.5z" />
    <glyph glyph-name="five" unicode="5" horiz-adv-x="977" 
d="M90 -275v154q186 12 302 44q150 42 235.5 120t85.5 209q0 112 -64 173q-60 57 -167 57q-113 0 -232 -56l-87 60l33 560h234q141 0 205 8q63 8 133 35l57 -143q-65 -25 -145 -37q-54 -8 -143 -8h-187l-18 -309q93 29 186 29q172 0 262 -93q53 -53 80 -128t27 -156
q0 -337 -423 -462q-172 -51 -374 -57z" />
    <glyph glyph-name="six" unicode="6" horiz-adv-x="1065" 
d="M872 1324v-136q-249 11 -389 -90t-180 -325q64 43 144.5 68.5t150.5 25.5q178 0 282 -109q104 -117 104 -323q0 -90 -26.5 -170.5t-78.5 -146t-139 -104t-198 -38.5q-154 0 -256.5 68t-147 186.5t-40.5 283.5q6 223 69 406q41 117 113 201t166.5 129t199.5 63t226 11z
M284 607q-12 -59 -12 -132q0 -76 14 -138t44.5 -112t84 -77.5t127.5 -27.5q129 0 198.5 84t69.5 227q0 156 -69 227q-64 65 -178 65q-65 0 -140.5 -32.5t-138.5 -83.5z" />
    <glyph glyph-name="seven" unicode="7" horiz-adv-x="992" 
d="M90 1046h445q115 0 189 9q70 9 139 27l49 -144q-194 -283 -276 -449q-86 -170 -111 -332q-20 -128 -20 -348v-74h-174q0 275 22.5 432t106.5 337q63 136 228 392h-598v150z" />
    <glyph glyph-name="eight" unicode="8" horiz-adv-x="1064" 
d="M778 704q47 -24 85.5 -54t65.5 -70t41.5 -91t14.5 -118q0 -94 -34.5 -167.5t-95.5 -124t-143.5 -77t-179.5 -26.5t-180 26.5t-143.5 78t-95 126.5t-34.5 171q0 58 16 108.5t44.5 92.5t68.5 76t89 60q-30 21 -56 47t-45.5 59.5t-30.5 76.5t-11 98q0 77 31 136t84 99.5
t122 61.5t146 21q78 0 148 -21t123 -61.5t84 -100t31 -135.5q0 -89 -38 -162t-107 -130zM537 1173q-47 0 -88 -11.5t-71 -34t-47.5 -56.5t-17.5 -79q0 -68 34 -109t85 -65.5t110.5 -38t111.5 -26.5q31 28 52 55t34 55.5t18.5 60t5.5 68.5q0 46 -18.5 80t-49.5 56.5t-72 33.5
t-87 11zM532 117q66 0 119 18t89.5 51t56 80t19.5 105q0 51 -17.5 89t-47.5 65t-70 45.5t-84 32t-90.5 23.5t-88.5 20q-84 -48 -127 -114t-43 -154q0 -61 19.5 -109.5t56 -82t89.5 -51.5t119 -18z" />
    <glyph glyph-name="nine" unicode="9" horiz-adv-x="1065" 
d="M201 -265v136q249 -11 389 90t180 325q-64 -43 -144.5 -68.5t-150.5 -25.5q-178 0 -282 109q-104 117 -104 323q0 90 26.5 170.5t78.5 146t139 104t198 38.5q154 0 256.5 -68t147 -186.5t40.5 -283.5q-6 -223 -69 -406q-41 -117 -113 -201t-166.5 -129t-199.5 -63
t-226 -11zM789 452q12 59 12 132q0 76 -14 138t-44.5 112t-84 77.5t-127.5 27.5q-129 0 -198.5 -84t-69.5 -227q0 -156 69 -227q64 -65 178 -65q65 0 140.5 32.5t138.5 83.5z" />
    <glyph glyph-name="colon" unicode=":" horiz-adv-x="670" 
d="M335 887q28 0 52.5 -10.5t42.5 -28.5t28.5 -42.5t10.5 -52.5q0 -27 -10.5 -51.5t-28.5 -42.5q-18 -19 -42.5 -29.5t-52.5 -10.5t-52.5 10.5t-42.5 29.5q-18 18 -28.5 42.5t-10.5 51.5q0 28 10.5 52.5t28.5 42.5t42.5 28.5t52.5 10.5zM335 248q28 0 52.5 -10.5t42.5 -28.5
t28.5 -42.5t10.5 -52.5q0 -27 -10.5 -51.5t-28.5 -42.5q-18 -19 -42.5 -29.5t-52.5 -10.5t-52.5 10.5t-42.5 29.5q-18 18 -28.5 42.5t-10.5 51.5q0 28 10.5 52.5t28.5 42.5t42.5 28.5t52.5 10.5z" />
    <glyph glyph-name="semicolon" unicode=";" horiz-adv-x="724" 
d="M393 887q28 0 52.5 -10.5t42.5 -28.5t28.5 -42.5t10.5 -52.5q0 -27 -10.5 -51.5t-28.5 -42.5q-18 -19 -42.5 -29.5t-52.5 -10.5t-52.5 10.5t-42.5 29.5q-18 18 -28.5 42.5t-10.5 51.5q0 28 10.5 52.5t28.5 42.5t42.5 28.5t52.5 10.5zM260 177q38 27 65.5 37t55.5 10
q49 0 79 -19.5t43.5 -50t11.5 -69.5t-18 -78q-11 -26 -29 -61t-38 -72.5t-40.5 -73.5t-35.5 -62h-122l79 262z" />
    <glyph glyph-name="less" unicode="&#x3c;" horiz-adv-x="957" 
d="M892 238v-141l-827 362v116l827 360v-140l-643 -277z" />
    <glyph glyph-name="equal" unicode="=" horiz-adv-x="1130" 
d="M151 665v137h828v-137h-828zM151 282v137h828v-137h-828z" />
    <glyph glyph-name="greater" unicode="&#x3e;" horiz-adv-x="959" 
d="M894 459l-827 -362v141l643 280l-643 277v140l827 -360v-116z" />
    <glyph glyph-name="question" unicode="?" horiz-adv-x="1096" 
d="M120 1363q58 29 118 50t124 33q36 6 74 10t76 4q50 0 98.5 -7.5t96.5 -25.5q94 -38 151.5 -119t57.5 -210q0 -95 -31 -160.5t-87.5 -114.5t-137 -86.5t-179.5 -75.5v-239l-139 -40l-60 350q106 46 190 82t142.5 75.5t90 90t31.5 127.5q0 57 -22.5 97t-59.5 64
q-31 20 -69 28t-80 8q-87 0 -172.5 -27.5t-154.5 -63.5zM410 224q25 0 47.5 -9.5t39 -26t26 -39t9.5 -47.5q0 -24 -9.5 -46t-26 -39t-39 -27t-47.5 -10q-24 0 -46.5 9.5t-39.5 26t-27 39t-10 47.5t10 47.5t26.5 39t39 26t47.5 9.5z" />
    <glyph glyph-name="at" unicode="@" horiz-adv-x="1700" 
d="M849 -212q-100 0 -192 26t-172 72.5t-145.5 112.5t-112.5 146.5t-72.5 172.5t-25.5 192t25.5 192t72.5 172.5t112.5 146.5t145.5 112.5t172 72.5t192 26q99 0 191 -26t172.5 -73t146.5 -113t113 -146.5t73 -172.5t26 -191q0 -198 -103 -296t-317 -98q-33 0 -69.5 2.5
t-74.5 7.5q-8 30 -12 52q-2 8 -2.5 16t-1.5 16q-1 7 -1 20.5v31.5q0 35 0.5 62.5t0.5 45.5l-10 2q-15 -53 -37.5 -98.5t-53 -80t-69.5 -54t-87 -19.5q-46 0 -80.5 18.5t-59 49.5t-40 71t-22.5 84q-5 29 -7.5 58.5t-2.5 61.5q0 77 18 153.5t60 137.5t112 99t174 38
q107 0 249 -34l-11 -269q-1 -25 -2 -65t-2.5 -83t-2.5 -84.5t-1 -69.5v-20t1 -15v-10t1 -10q20 -3 37.5 -3.5t35.5 -0.5q64 0 112 21t80 58.5t48 89.5t16 114q0 82 -21.5 158t-60.5 142.5t-94 121.5t-121.5 94t-142.5 60.5t-158 21.5t-158 -21.5t-142.5 -60.5t-121.5 -94
t-94 -121.5t-60.5 -142.5t-21.5 -158t21.5 -158t60.5 -142.5t94 -121.5t121.5 -94t142.5 -60.5t158 -21.5h28v-124h-28zM1005 771q-25 4 -50.5 7t-51.5 3q-79 0 -129.5 -29t-79 -75t-39.5 -103t-11 -112q0 -62 9 -111q9 -48 31 -81t67 -33q25 0 49 12t42 34q25 27 48 62.5
t42.5 74t34.5 77t26 71.5z" />
    <glyph glyph-name="A" unicode="A" horiz-adv-x="1369" 
d="M1158 0l-189 489h-569l-189 -489h-191l570 1438h189l570 -1438h-191zM459 643h451l-226 585z" />
    <glyph glyph-name="B" unicode="B" horiz-adv-x="1297" 
d="M631 1438q102 0 191.5 -15.5t156.5 -54.5t106 -106t39 -171q0 -62 -14 -110t-39.5 -85t-62.5 -63.5t-82 -44.5v-2q55 -14 105.5 -43t88.5 -74t60.5 -106.5t22.5 -139.5q0 -113 -40 -193t-110.5 -131t-166 -75t-206.5 -24h-502v1438h453zM628 847q72 0 129 12t96.5 40.5
t61 76t21.5 117.5q0 60 -25 99t-68 61t-99 30.5t-116 8.5h-262v-445h262zM680 146q70 0 131.5 18t106.5 53t71 87t26 120t-26 119.5t-71 86.5t-106.5 53t-131.5 18h-314v-555h314z" />
    <glyph glyph-name="C" unicode="C" horiz-adv-x="1239" 
d="M1157 41q-93 -29 -196.5 -47t-227.5 -18q-306 0 -462 183t-156 539q0 378 156 570t462 192q116 0 208.5 -20t178.5 -52l-52 -148q-41 15 -81 27t-80.5 20t-83.5 12t-90 4q-111 0 -191 -39.5t-132 -115t-77 -184t-25 -246.5q0 -142 25 -251t77 -183.5t132 -112.5t191 -38
q102 0 194 17t183 45z" />
    <glyph glyph-name="D" unicode="D" horiz-adv-x="1376" 
d="M182 0v1438h304q123 0 228.5 -12.5t193.5 -43.5t154.5 -82.5t114.5 -131.5q47 -80 71 -190t24 -259t-24 -259t-71 -190q-48 -80 -114.5 -131.5t-154.5 -82.5t-193.5 -43.5t-228.5 -12.5h-304zM517 154q153 0 259.5 30.5t174.5 99.5q67 69 97.5 175.5t30.5 259.5
t-30.5 259.5t-97.5 175.5q-68 69 -174.5 99.5t-259.5 30.5h-147v-1130h147z" />
    <glyph glyph-name="E" unicode="E" horiz-adv-x="1131" 
d="M182 1438h798v-154h-610v-397h432v-154h-432v-579h633v-154h-821v1438z" />
    <glyph glyph-name="F" unicode="F" horiz-adv-x="1050" 
d="M182 1438h798v-154h-610v-397h432v-154h-432v-733h-188v1438z" />
    <glyph glyph-name="G" unicode="G" horiz-adv-x="1399" 
d="M1257 77q-119 -49 -246.5 -75t-247.5 -26q-156 0 -276.5 44t-202.5 134t-124.5 226.5t-42.5 321.5q0 201 43.5 345t126.5 235.5t204.5 134.5t277.5 43q97 0 204 -19.5t220 -55.5l-53 -150q-101 34 -189.5 51t-178.5 17q-116 0 -203 -34t-144.5 -105t-86 -181t-28.5 -262
q0 -150 26.5 -261t81.5 -183.5t140 -108t201 -35.5q82 0 165 17t152 40v398h-241v151h422v-662z" />
    <glyph glyph-name="H" unicode="H" horiz-adv-x="1512" 
d="M1142 1438h188v-1438h-188v713h-772v-713h-188v1438h188v-571h772v571z" />
    <glyph glyph-name="I" unicode="I" horiz-adv-x="596" 
d="M204 1438h188v-1438h-188v1438z" />
    <glyph glyph-name="J" unicode="J" horiz-adv-x="716" 
d="M357 1438h188v-1009q0 -141 -12 -235t-45 -166q-73 -158 -290 -255l-74 108q100 84 131 119q25 28 42 57q60 101 60 293v1088z" />
    <glyph glyph-name="K" unicode="K" horiz-adv-x="1313" 
d="M1014 1460l127 -102l-552 -654l600 -704h-226l-591 694v-694h-188v1438h188v-740z" />
    <glyph glyph-name="L" unicode="L" horiz-adv-x="1042" 
d="M195 1438h188v-1284h589v-154h-777v1438z" />
    <glyph glyph-name="M" unicode="M" horiz-adv-x="1894" 
d="M1347 1437h279l173 -1437h-183l-150 1210h-10l-397 -1210h-224l-397 1210h-10l-150 -1210h-183l173 1437h279l400 -1245z" />
    <glyph glyph-name="N" unicode="N" horiz-adv-x="1529" 
d="M1351 -10h-220l-765 1202v-1192h-188v1438h220l765 -1202v1202h188v-1448z" />
    <glyph glyph-name="O" unicode="O" horiz-adv-x="1482" 
d="M1372 719q0 -361 -163 -552t-468 -191q-302 0 -466.5 190.5t-164.5 552.5q0 361 165 551t466 190q305 0 468 -191.5t163 -549.5zM1179 719q0 278 -109.5 431t-329.5 153q-221 0 -329 -154.5t-108 -429.5q0 -135 25.5 -241.5t78 -184t137 -119t196.5 -41.5
q220 0 329.5 153.5t109.5 432.5z" />
    <glyph glyph-name="P" unicode="P" horiz-adv-x="1219" 
d="M635 1438q99 0 185 -21.5t149.5 -70t100 -126.5t36.5 -190q0 -125 -42 -204t-113.5 -125t-166 -63t-199.5 -17q-57 0 -111.5 4t-102.5 9v-634h-186v1438h450zM371 784q48 -6 100.5 -9.5t105.5 -3.5q76 0 139.5 9.5t108.5 37.5t70 79t25 133q0 75 -21 124.5t-58.5 79.5
t-90 42t-115.5 12h-264v-504z" />
    <glyph glyph-name="Q" unicode="Q" horiz-adv-x="1502" 
d="M748 1460q153 0 270.5 -48.5t197.5 -143t121.5 -232.5t41.5 -317q0 -290 -104 -469t-302 -242q49 -36 84.5 -63t70 -47.5t74 -37t97.5 -32.5q-12 -42 -27.5 -80t-33.5 -77q-38 10 -71 22t-66 27.5t-67.5 37.5t-76.5 52.5t-93 71t-116 94.5q-149 0 -266.5 47.5t-198.5 141
t-123.5 232.5t-42.5 322q0 182 42.5 320.5t123.5 232t198.5 141t266.5 47.5zM747 1303q-114 0 -197 -41.5t-136 -118t-78.5 -184.5t-25.5 -240q0 -133 25.5 -241.5t78.5 -185t136 -118t197 -41.5q112 0 195 40.5t137 116.5t80.5 184.5t26.5 244.5q0 135 -26.5 243.5
t-80.5 184t-137 116t-195 40.5z" />
    <glyph glyph-name="R" unicode="R" horiz-adv-x="1275" 
d="M635 1438q95 0 179.5 -22t149.5 -70q66 -49 103.5 -124t37.5 -177t-37.5 -177t-103.5 -124q-51 -38 -113.5 -59t-133.5 -29l-1 -2q29 -19 64 -53.5t73 -81.5t78 -101.5t81 -114.5l208 -303h-220l-226 350q-61 96 -105.5 155t-84.5 93q-39 34 -80 46t-95 12h-38v-656h-186
v1438h450zM635 802q63 0 115 14t89.5 43.5t58.5 75.5t21 110t-21 110t-58.5 75.5t-89.5 43.5t-115 14h-264v-486h264z" />
    <glyph glyph-name="S" unicode="S" horiz-adv-x="1196" 
d="M175 209q41 -16 86.5 -30t93 -24t95.5 -16t94 -6q79 0 143 18t110 52.5t71 85t25 115.5t-23.5 106.5t-68 69.5t-109.5 47.5t-148 40.5q-92 24 -169.5 53.5t-134 76.5t-88.5 116.5t-32 173.5q0 85 34 154t96 117.5t149 74.5t192 26q51 0 104 -6.5t105 -17.5t102 -27
t94 -35l-60 -148q-36 14 -73.5 28t-79.5 25t-89.5 17.5t-102.5 6.5t-105 -12t-88.5 -37.5t-61.5 -66.5t-23 -99q0 -65 23.5 -106.5t68 -69.5t109.5 -47.5t148 -40.5q92 -24 169.5 -53.5t134 -76.5t88.5 -117t32 -173q0 -109 -40.5 -189.5t-113 -133.5t-172 -79t-216.5 -26
q-221 0 -429 85z" />
    <glyph glyph-name="T" unicode="T" horiz-adv-x="1237" 
d="M80 1438h1077v-154h-442v-1284h-188v1284h-447v154z" />
    <glyph glyph-name="U" unicode="U" horiz-adv-x="1486" 
d="M1128 1438h188v-831q0 -314 -141 -472.5t-433 -158.5q-572 0 -572 631v831h188v-832q0 -110 19 -193.5t62 -148t119 -98t184 -33.5q88 0 155.5 22.5t110.5 62.5t70.5 100.5t38.5 130t11 157.5v832z" />
    <glyph glyph-name="V" unicode="V" horiz-adv-x="1468" 
d="M1158 1438h197l-537 -1440h-167l-538 1440h197l425 -1209z" />
    <glyph glyph-name="W" unicode="W" horiz-adv-x="1850" 
d="M1777 1437l-173 -1437h-279l-400 1245l-400 -1245h-279l-173 1437h183l150 -1210h10l397 1210h224l397 -1210h10l150 1210h183z" />
    <glyph glyph-name="X" unicode="X" horiz-adv-x="1415" 
d="M118 1358l146 105l435 -608l387 583h219l-495 -726l456 -627l-151 -108l-415 584l-373 -561h-217l479 704z" />
    <glyph glyph-name="Y" unicode="Y" horiz-adv-x="1357" 
d="M1078 1438h214l-520 -790v-648h-187v648l-520 790h214l399 -636z" />
    <glyph glyph-name="Z" unicode="Z" horiz-adv-x="1234" 
d="M171 1438h910v-134l-701 -1150h707v-154h-940v132l703 1152h-679v154z" />
    <glyph glyph-name="bracketleft" unicode="[" horiz-adv-x="711" 
d="M200 1570h331v-132h-168v-1438h168v-132h-331v1702z" />
    <glyph glyph-name="backslash" unicode="\" horiz-adv-x="1139" 
d="M845 0l-710 1438h159l710 -1438h-159z" />
    <glyph glyph-name="bracketright" unicode="]" horiz-adv-x="711" 
d="M180 1570h331v-1702h-331v132h168v1438h-168v132z" />
    <glyph glyph-name="asciicircum" unicode="^" horiz-adv-x="772" 
d="M335 1114h107l311 -687h-117l-247 557l-247 -557h-116z" />
    <glyph glyph-name="underscore" unicode="_" horiz-adv-x="1083" 
d="M160 145h764v-145h-764v145z" />
    <glyph glyph-name="grave" unicode="`" horiz-adv-x="575" 
d="M448 1181h-122q-115 202 -143 269q-19 54 -18 102.5t36.5 81.5t97.5 33q56 0 121 -47l-51 -177z" />
    <glyph glyph-name="a" unicode="a" horiz-adv-x="1041" 
d="M229 856l-44 140q168 67 352 67q161 0 246 -54q97 -62 97 -211v-409q0 -82 2 -168q1 -51 10 -106q8 -52 21 -99l-164 -36q-23 67 -29 150l-20 2q-124 -156 -316 -156q-140 0 -225 77.5t-85 218.5q0 105 46.5 172t131.5 113q134 73 375 73q32 0 86 -2v152q0 72 -44 104
t-138 32q-137 0 -302 -60zM713 292v210q-27 2 -79 2q-88 0 -162 -15q-110 -22 -170.5 -69.5t-60.5 -136.5q0 -160 174 -160q90 0 168 48q64 40 130 121z" />
    <glyph glyph-name="b" unicode="b" horiz-adv-x="1105" 
d="M176 1440h172v-599l21 -2q47 104 111 158q74 66 179 66q183 0 280 -154q87 -143 87 -369q0 -275 -131 -424q-125 -140 -370 -140q-134 0 -349 32v1432zM338 614v-472q92 -19 187 -19q162 0 243 95q84 98 84 291q0 175 -38 270q-50 125 -170 125q-105 0 -185 -88
q-56 -60 -121 -202z" />
    <glyph glyph-name="c" unicode="c" horiz-adv-x="973" 
d="M895 37q-78 -27 -166.5 -44t-167.5 -17q-120 0 -208 35t-145.5 102t-85.5 164.5t-28 222.5q0 136 34.5 241t100 176.5t160 108.5t214.5 37q61 0 124 -12.5t128 -31.5l-43 -140q-52 17 -96.5 27t-93.5 10q-170 0 -262 -98.5t-92 -297.5q0 -93 13.5 -166.5t48 -125
t94 -78.5t151.5 -27q60 0 129.5 15.5t147.5 38.5z" />
    <glyph glyph-name="d" unicode="d" horiz-adv-x="1123" 
d="M776 1440h172v-1047q0 -176 5 -231q5 -68 23 -146l-166 -37q-17 56 -25 113q-10 70 -11 108h-15q-52 -108 -115 -159q-76 -65 -188 -65q-98 0 -169 42.5t-110.5 118.5t-58 167t-18.5 201q0 124 25.5 223t78.5 175.5t142 118t209 41.5q94 0 221 -25v402zM776 421v465
q-113 30 -208 30q-81 0 -139.5 -29.5t-91.5 -83t-48 -119.5t-15 -148q0 -56 2.5 -98.5t9 -92t20.5 -84.5t35 -65t54.5 -45.5t77.5 -15.5q106 0 184 85q56 62 119 201z" />
    <glyph glyph-name="e" unicode="e" horiz-adv-x="1102" 
d="M946 58q-111 -44 -208.5 -63t-174.5 -19q-118 0 -206 37.5t-146.5 105.5t-88 162.5t-29.5 208.5q0 70 10 140t32 133.5t57.5 118.5t86.5 95t119 63t155 23q223 0 336 -139.5t113 -399.5v-55h-732q0 -84 18 -148.5t55.5 -109t95 -67.5t136.5 -23q44 0 87.5 6.5t84.5 17
t78.5 23.5t70.5 25zM829 607q-8 162 -77.5 236.5t-198.5 74.5t-196.5 -74.5t-81.5 -236.5h554z" />
    <glyph glyph-name="f" unicode="f" horiz-adv-x="916" 
d="M277 1040v113q0 74 14 128t49 100t102.5 69.5t166.5 23.5q129 0 307 -43l-31 -141q-168 35 -256 35q-43 0 -72.5 -4.5t-49.5 -18t-31 -28.5t-16.5 -45t-7 -57t-1.5 -75v-57h334v-145h-334v-750h334v-145h-682v145h174v750h-174v145h174z" />
    <glyph glyph-name="g" unicode="g" horiz-adv-x="1118" 
d="M762 1040q43 0 75.5 1t62.5 4.5t60.5 10.5t71.5 20q13 -38 25.5 -72t25.5 -70q-32 -12 -59 -19t-53.5 -11.5t-53 -6t-56.5 -2.5q28 -45 43 -101t15 -122q0 -96 -29 -167.5t-83 -121.5t-129.5 -75.5t-169.5 -25.5q-48 0 -91 5.5t-82 19.5q-9 -24 -15.5 -49t-6 -47.5
t8.5 -41t28 -29.5q10 -6 21 -9.5t26.5 -6t37.5 -4t53 -1.5q30 -1 70.5 -1h94.5q156 0 236 -65.5t80 -203.5q0 -56 -18 -99.5t-49.5 -75.5t-74.5 -53.5t-93 -35t-104.5 -19t-109.5 -5.5t-110.5 6t-108.5 15t-99.5 20.5t-82.5 22.5q14 34 31.5 68t37.5 64q63 -18 150 -35
t193 -17q48 0 94.5 6t84 22.5t60.5 44t23 71.5q0 46 -16.5 71t-44.5 37t-66 14t-80 2h-131q-59 0 -111 9t-91 30.5t-61.5 56.5t-22.5 86q0 49 18 101.5t47 106.5q-66 48 -101.5 127t-35.5 182q0 94 29.5 166.5t83.5 123.5t129 76t169 25q88 0 162 -23h92zM508 925
q-63 0 -108 -19t-73.5 -52.5t-42 -80t-13.5 -101.5q0 -56 13.5 -102t42.5 -79.5t73.5 -52t107.5 -18.5t108 18.5t73.5 52t42 80t13.5 101.5t-13.5 101.5t-42 80t-73.5 52.5t-108 19z" />
    <glyph glyph-name="h" unicode="h" horiz-adv-x="1159" 
d="M175 1440h172v-627q67 114 152 178q97 72 193 72q144 0 224 -72q69 -62 95 -187q20 -95 20 -256v-548h-172v596q0 61 -3 100.5t-14.5 83t-33 68t-60 40.5t-93.5 16q-95 0 -183 -90q-56 -57 -125 -174v-640h-172v1440z" />
    <glyph glyph-name="i" unicode="i" horiz-adv-x="543" 
d="M269 1443q46 0 80 -32q33 -35 33 -82q0 -48 -33 -81q-34 -34 -80 -34q-48 0 -82 34q-34 32 -34 81q0 48 34 82q34 32 82 32zM181 1040h172v-1040h-172v1040z" />
    <glyph glyph-name="j" unicode="j" horiz-adv-x="660" 
d="M370 1443q46 0 80 -32q33 -35 33 -82q0 -48 -33 -81q-34 -34 -80 -34q-48 0 -82 34q-34 32 -34 81q0 48 34 82q34 32 82 32zM283 1040h172v-896q0 -183 -37 -278q-35 -91 -147 -215l-57 -63l-115 95q82 99 109 145q1 2 23 43q52 108 52 260v909z" />
    <glyph glyph-name="k" unicode="k" horiz-adv-x="1038" 
d="M169 1440h172v-866l468 489l113 -110l-405 -417l511 -536h-214l-473 500v-500h-172v1440z" />
    <glyph glyph-name="l" unicode="l" horiz-adv-x="475" 
d="M312 404q0 -82 2 -137.5t5 -97.5t9.5 -76t16.5 -75q-42 -11 -84 -20.5t-84 -16.5q-20 65 -28.5 119t-8.5 106v1232h172v-1034z" />
    <glyph glyph-name="m" unicode="m" horiz-adv-x="1741" 
d="M168 0v643q0 154 -7 232q-4 61 -26 149l164 37q19 -60 27 -116q4 -21 10 -109h21q51 102 128 160q83 67 189 67q60 0 116 -21.5t94 -60.5q57 -56 81 -166h12q60 116 141 178q87 70 195 70q131 0 201 -73q61 -61 86 -186q18 -91 18 -254v-550h-172v598q0 79 -9 130
q-14 79 -50 123q-45 53 -126 53q-92 0 -170 -88q-47 -53 -112 -164q2 -17 2 -50v-602h-172v598q0 127 -25 195q-42 111 -159 111q-90 0 -171 -90q-47 -52 -114 -173v-641h-172z" />
    <glyph glyph-name="n" unicode="n" horiz-adv-x="1147" 
d="M135 1022l166 37q19 -60 27 -116q4 -27 10 -107h21q55 101 136 161q89 66 188 66q149 0 227 -72q67 -61 93 -187q17 -86 17 -256v-548h-172v596q0 149 -29 213q-43 95 -173 95q-92 0 -180 -88q-59 -59 -126 -173v-643h-172v640q0 135 -7 233q-4 61 -26 149z" />
    <glyph glyph-name="o" unicode="o" horiz-adv-x="1113" 
d="M555 1063q49 0 102 -7.5t104 -28.5q51 -22 96.5 -59.5t80.5 -97.5q35 -61 55 -146.5t20 -203.5t-20 -203.5t-55 -145.5q-35 -61 -80.5 -99t-96.5 -59q-51 -22 -104 -29.5t-102 -7.5q-48 0 -100.5 7.5t-103.5 29.5q-51 21 -96 59t-80 99q-35 60 -55 145.5t-20 203.5
t20 203.5t55 146.5q35 60 80 97.5t96 59.5q51 21 103 28.5t101 7.5zM555 922q-57 0 -107.5 -18t-88.5 -63q-39 -46 -62 -123t-23 -198q0 -120 23 -197.5t62 -122.5q38 -46 88.5 -63.5t107.5 -17.5q58 0 109.5 17.5t90.5 63.5q39 45 61.5 122.5t22.5 197.5q0 121 -22.5 198
t-61.5 123q-39 45 -90.5 63t-109.5 18z" />
    <glyph glyph-name="p" unicode="p" horiz-adv-x="1114" 
d="M338 -400h-172v1048q0 174 -5 229q-5 68 -23 146l166 37q17 -56 25 -113q10 -70 11 -108h15q52 108 115 159q76 65 188 65q98 0 169 -42.5t110.5 -118.5t58 -167t18.5 -201q0 -124 -25.5 -223t-78.5 -175.5t-142 -118t-209 -41.5q-94 0 -221 25v-401zM338 618v-465
q113 -30 208 -30q81 0 139.5 29.5t91.5 83t48 119.5t15 148q0 56 -2.5 98.5t-9 92t-20.5 84.5t-35 65t-54.5 45.5t-77.5 15.5q-106 0 -184 -85q-56 -62 -119 -201z" />
    <glyph glyph-name="q" unicode="q" horiz-adv-x="1125" 
d="M950 -400h-172v598l-21 2q-47 -104 -111 -158q-74 -66 -179 -66q-183 0 -280 154q-87 142 -87 369q0 275 131 424q125 140 370 140q134 0 349 -32v-1431zM788 425v472q-92 19 -187 19q-162 0 -243 -95q-84 -98 -84 -291q0 -175 38 -270q50 -125 170 -125q105 0 185 88
q56 60 121 202z" />
    <glyph glyph-name="r" unicode="r" horiz-adv-x="833" 
d="M355 799q31 62 66.5 112t78.5 85q39 34 86 50.5t107 16.5q20 0 46.5 -2t50.5 -7q-4 -50 -9.5 -94t-14.5 -89q-50 9 -91.5 13t-78.5 -2q-44 -8 -76.5 -29.5t-60 -57t-53.5 -85t-57 -113.5v-597h-172v641q0 63 -1.5 111t-6 91.5t-13.5 86t-24 94.5q42 11 82.5 20t82.5 17
q14 -40 22.5 -71t13.5 -60.5t7.5 -60t5.5 -70.5h9z" />
    <glyph glyph-name="s" unicode="s" horiz-adv-x="955" 
d="M477 1063q82 0 164.5 -17t153.5 -47q-14 -32 -29 -63t-33 -61q-25 10 -55.5 20t-64 17t-69 11.5t-69.5 4.5q-37 0 -71.5 -7.5t-61 -24.5t-42.5 -44.5t-16 -68.5q0 -42 18 -70.5t49 -47.5t72.5 -32t88.5 -24q73 -18 136 -40.5t109 -58.5t72 -89t26 -131q0 -82 -32.5 -141
t-88 -97.5t-129.5 -57t-158 -18.5q-44 0 -90.5 5.5t-92 16t-89.5 25.5t-83 33q14 32 29.5 62.5t32.5 60.5q33 -14 70 -26.5t76 -21.5t77 -14.5t73 -5.5q44 0 85.5 10t74 31.5t52 55.5t19.5 82q0 45 -18.5 74t-49.5 48.5t-72.5 32t-87.5 23.5q-70 17 -132.5 39t-109 57.5
t-74 88t-27.5 130.5q0 73 30 126t80.5 87t117 50.5t139.5 16.5z" />
    <glyph glyph-name="t" unicode="t" horiz-adv-x="861" 
d="M260 1278h172v-238h350v-145h-350v-597q0 -60 3.5 -91.5t17.5 -49.5q26 -36 105 -36q44 0 85 9q42 9 77 20q28 -61 51 -134q-118 -40 -238 -40q-87 0 -139.5 19.5t-82.5 63.5q-31 46 -41 110t-10 177v549h-150v145h150v238z" />
    <glyph glyph-name="u" unicode="u" horiz-adv-x="1158" 
d="M1028 18l-166 -37q-19 60 -27 116q-4 26 -10 106h-21q-55 -101 -136 -161q-89 -66 -188 -66q-149 0 -227 72q-67 61 -93 187q-17 86 -17 256v549h172v-597q0 -149 29 -213q43 -95 173 -95q92 0 180 88q59 59 126 173v644h172v-642q0 -133 7 -231q4 -61 26 -149z" />
    <glyph glyph-name="v" unicode="v" horiz-adv-x="1022" 
d="M972 1040l-346 -1040h-230l-346 1040h186l275 -908l275 908h186z" />
    <glyph glyph-name="w" unicode="w" horiz-adv-x="1491" 
d="M1112 0h-229l-125 483l-201 -483h-226l-266 1041h172l219 -916l242 600l-81 316h172l225 -916q108 250 151 376q52 153 52 263q0 96 -47 259q91 23 165 37q42 -103 53 -222q3 -30 3 -61q0 -164 -92 -382q-25 -58 -56.5 -124.5t-74 -154t-56.5 -116.5z" />
    <glyph glyph-name="x" unicode="x" horiz-adv-x="1128" 
d="M102 964l127 99l328 -417l280 394h198l-377 -523l349 -442l-126 -99l-318 404l-271 -379h-199l368 507z" />
    <glyph glyph-name="y" unicode="y" horiz-adv-x="1186" 
d="M1010 1040v-1063q0 -99 -32.5 -171t-90 -119t-136.5 -69.5t-172 -22.5q-84 0 -169 14.5t-162 40.5q13 35 27 68l28 66q24 -8 57.5 -17t71 -16.5t77 -12t76.5 -4.5q58 0 105 15.5t80 46.5t50.5 76.5t17.5 104.5v226h-19q-26 -47 -60 -88.5t-75 -72.5t-88.5 -48.5
t-100.5 -17.5q-73 0 -127 16.5t-92.5 49t-63 81t-37.5 112.5q-11 57 -14 122t-3 134v549h172v-597q0 -65 6 -121.5t26.5 -98t60.5 -65t109 -23.5q51 0 96 24.5t83 62.5t69.5 84t57.5 90v644h172z" />
    <glyph glyph-name="z" unicode="z" horiz-adv-x="991" 
d="M400 895q-41 0 -75 1t-65.5 4.5t-64 11.5t-70.5 22q13 36 25.5 70t25.5 72q40 -13 71 -20t61 -10.5t62 -4.5t76 -1h420v-120l-522 -775h531v-145h-746v121l521 774h-250z" />
    <glyph glyph-name="braceleft" unicode="{" horiz-adv-x="711" 
d="M215 920v386q0 118 71 182q82 76 263 76v-123q-117 0 -155 -44q-32 -37 -32 -132v-345q0 -68 -26 -123q-19 -38 -50 -75q32 -38 50 -74q26 -55 26 -122v-359q0 -98 32 -132q39 -44 155 -44v-123q-181 0 -263 76q-71 64 -71 182v400q0 64 -49 138q-23 34 -48 58
q51 49 82 121q15 36 15 77z" />
    <glyph glyph-name="bar" unicode="|" horiz-adv-x="615" 
d="M230 1571h155v-1702h-155v1702z" />
    <glyph glyph-name="braceright" unicode="}" horiz-adv-x="711" 
d="M178 1441v123q180 0 264 -76q70 -65 70 -182v-386q0 -68 48 -140q23 -35 49 -58q-52 -49 -82 -120q-15 -36 -15 -76v-400q0 -117 -70 -182q-84 -76 -264 -76v123q117 0 156 44q31 33 31 132v359q0 68 27 122q17 36 49 74q-31 37 -49 75q-27 54 -27 123v345q0 96 -31 132
q-38 44 -156 44z" />
    <glyph glyph-name="asciitilde" unicode="~" horiz-adv-x="1145" 
d="M176 456l-44 92q136 105 240 105q60 0 138.5 -28.5t147.5 -56.5t106 -28q98 0 205 89l44 -91q-136 -105 -240 -105q-60 0 -137 28t-146 56t-109 28q-100 0 -205 -89z" />
    <glyph glyph-name="uni00A0" unicode="&#xa0;" horiz-adv-x="580" 
 />
    <glyph glyph-name="exclamdown" unicode="&#xa1;" horiz-adv-x="595" 
d="M272 1063q24 0 46.5 -9.5t39.5 -26t27 -39t10 -47.5t-10 -47.5t-26.5 -39t-39 -26t-47.5 -9.5t-47.5 9.5t-39 26t-26 39t-9.5 47.5q0 24 9.5 46t26 39t39 27t47.5 10zM445 -320q-35 -54 -74 -75.5t-81 -21.5q-34 0 -58 11.5t-39 31t-22 46.5t-7 59l41 890l119 34l40 -808
z" />
    <glyph glyph-name="cent" unicode="&#xa2;" horiz-adv-x="973" 
d="M852 177l43 -140q-176 -61 -334 -61q-48 0 -90 6l-47 -202h-115l53 228q-92 36 -153 107q-115 134 -115 385q0 280 150 430q134 133 359 133h7l54 232h115l-57 -244q60 -11 133 -32l-43 -140q-71 24 -123 32l-184 -783q37 -5 70 -5q98 0 277 54zM399 163l176 751
q-129 -14 -208 -96q-99 -102 -99 -298q0 -198 59 -288q27 -42 72 -69z" />
    <glyph glyph-name="sterling" unicode="&#xa3;" horiz-adv-x="1144" 
d="M294 895v169q0 206 68 295q77 101 269 101q129 0 307 -43l-31 -139q-152 33 -243 33q-130 0 -165 -53q-17 -25 -21.5 -62.5t-4.5 -107.5v-193h343v-154h-343v-587h551v-154h-730v741h-174v154h174z" />
    <glyph glyph-name="yen" unicode="&#xa5;" horiz-adv-x="1299" 
d="M1234 1438l-423 -675h183v-146h-255v-178h255v-146h-255v-293h-179v293h-255v146h255v178h-255v146h183l-423 675h204l380 -636l381 636h204z" />
    <glyph glyph-name="brokenbar" unicode="&#xa6;" horiz-adv-x="600" 
d="M230 1571h155v-670h-155v670zM230 539h155v-670h-155v670z" />
    <glyph glyph-name="section" unicode="&#xa7;" horiz-adv-x="963" 
d="M803 1376l-62 -124q-127 53 -258 53q-89 0 -144.5 -34.5t-55.5 -110.5q0 -33 13.5 -59t33 -42.5t54 -31t63 -23t73.5 -18.5q65 -15 112 -30.5t93 -41t74.5 -58t46 -80.5t17.5 -109q0 -150 -111 -232q111 -77 111 -230q0 -105 -56.5 -177.5t-146 -104.5t-205.5 -32
q-185 0 -355 80l62 123q156 -68 296 -68q104 0 172 44t68 135q0 35 -13.5 62.5t-33.5 45t-53.5 31.5t-63.5 22t-73 17q-76 15 -133.5 37.5t-107 58.5t-76 91t-26.5 128q0 149 128 224q-128 83 -128 238q0 138 105 209t262 71q168 0 318 -64zM283 698q0 -33 13.5 -59
t33 -42.5t54 -31t63 -23t73.5 -18.5q40 -9 63 -16q115 43 115 159q0 34 -12.5 61t-32 44.5t-51.5 31.5t-61 22t-70 17q-188 -6 -188 -145z" />
    <glyph glyph-name="dieresis" unicode="&#xa8;" horiz-adv-x="986" 
d="M273 1418q24 0 46 -9.5t38 -25.5t25.5 -38t9.5 -46q0 -26 -9.5 -48t-25.5 -38t-38 -25.5t-46 -9.5q-26 0 -48 9.5t-39 25.5q-36 33 -36 86q0 24 9.5 46t26.5 38t39 25.5t48 9.5zM715 1418q25 0 47 -9.5t39 -25.5t26 -38t9 -46q0 -53 -35 -86q-17 -16 -39 -25.5t-47 -9.5
q-24 0 -45.5 9.5t-38.5 25.5t-27 38t-10 48q0 24 10 46t27 38t38.5 25.5t45.5 9.5z" />
    <glyph glyph-name="copyright" unicode="&#xa9;" horiz-adv-x="1649" 
d="M824 1229q98 0 189.5 -26t171.5 -72.5t145.5 -112.5t112.5 -145.5t73 -171t26 -189.5t-26 -189.5t-73 -171t-112.5 -145t-145.5 -112.5t-171.5 -72.5t-189.5 -25.5t-189.5 25.5t-171 72t-145.5 111.5t-112.5 144.5t-72.5 171.5t-26 191q0 98 26 189.5t72.5 171
t112.5 145.5t145.5 112.5t171 72.5t189.5 26zM824 1113q-126 0 -236 -47t-191 -128.5t-128 -191t-47 -234.5q0 -82 21.5 -159t60 -144t93.5 -122.5t121.5 -95.5t144 -62t161.5 -22t161.5 22t144.5 62t121.5 95.5t93.5 122.5t60.5 144t21.5 159q0 124 -47 233t-128.5 191
t-191.5 129.5t-236 47.5zM1012 776q-38 15 -76.5 25t-81.5 10q-66 0 -114.5 -24.5t-78.5 -64.5t-43.5 -94.5t-13.5 -114.5q0 -68 10 -123t36 -96q33 -48 86.5 -66.5t113.5 -18.5q47 0 94.5 9t89.5 23l32 -96q-47 -14 -105.5 -25t-121.5 -11q-88 0 -157.5 21.5t-120.5 78.5
q-44 49 -66.5 120.5t-22.5 164.5q0 110 28 188t76 129q49 52 116.5 76t149.5 24q56 0 107 -10t106 -31z" />
    <glyph glyph-name="guillemotleft" unicode="&#xab;" horiz-adv-x="1360" 
d="M170 518l443 441l100 -99l-340 -342l341 -344l-101 -99zM646 518l443 441l100 -99l-340 -342l341 -344l-101 -99z" />
    <glyph glyph-name="logicalnot" unicode="&#xac;" horiz-adv-x="1281" 
d="M185 612h911v-458h-147v311h-764v147z" />
    <glyph glyph-name="uni00AD" unicode="&#xad;" horiz-adv-x="1164" 
d="M204 632h756v-148h-756v148z" />
    <glyph glyph-name="registered" unicode="&#xae;" horiz-adv-x="1649" 
d="M824 1229q98 0 189.5 -26t171.5 -72.5t145.5 -112.5t112.5 -145.5t73 -171t26 -189.5t-26 -189.5t-73 -171t-112.5 -145t-145.5 -112.5t-171.5 -72.5t-189.5 -25.5t-189.5 25.5t-171 72t-145.5 111.5t-112.5 144.5t-72.5 171.5t-26 191q0 98 26 189.5t72.5 171
t112.5 145.5t145.5 112.5t171 72.5t189.5 26zM824 1113q-126 0 -236 -47t-191 -128.5t-128 -191t-47 -234.5q0 -82 21.5 -159t60 -144t93.5 -122.5t121.5 -95.5t144 -62t161.5 -22t161.5 22t144.5 62t121.5 95.5t93.5 122.5t60.5 144t21.5 159q0 124 -47 233t-128.5 191
t-191.5 129.5t-236 47.5zM899 309q-34 49 -57 79t-44 47q-22 17 -42 23t-47 6h-11v-339h-127v770h272q56 0 105 -12.5t85 -38t56.5 -66t20.5 -95.5q0 -48 -17 -86t-46 -65t-68 -43.5t-83 -20.5q18 -11 34.5 -26t37.5 -39q21 -26 43 -55t45 -60l119 -163h-149zM823 557
q34 0 63 6t50 20t33 37.5t12 58.5q0 36 -12 59.5t-33 37.5t-50 20t-63 6h-125v-245h125z" />
    <glyph glyph-name="macron" unicode="&#xaf;" horiz-adv-x="623" 
d="M55 1709h513v-121h-513v121z" />
    <glyph glyph-name="degree" unicode="&#xb0;" horiz-adv-x="771" 
d="M385 1504q60 0 112.5 -22t91 -60.5t60.5 -91t22 -112.5t-22 -112t-60.5 -90.5t-91 -60.5t-112.5 -22t-112 22t-90.5 60.5t-60.5 90.5t-22 112t22 112.5t60.5 91t90.5 60.5t112 22zM385 1364q-31 0 -57.5 -11t-46 -30.5t-31 -46.5t-11.5 -58t11.5 -57.5t31 -46t46 -31
t57.5 -11.5t58 11.5t46.5 31t30.5 46t11 57.5t-11 58t-30.5 46.5t-46.5 30.5t-58 11z" />
    <glyph glyph-name="plusminus" unicode="&#xb1;" horiz-adv-x="1134" 
d="M979 745v-137h-346v-345h-137v345h-345v137h346v346h137v-346h345zM151 0v137h828v-137h-828z" />
    <glyph glyph-name="acute" unicode="&#xb4;" horiz-adv-x="575" 
d="M229 1443l-51 177q65 47 121 47q62 0 97.5 -33t36.5 -81.5t-18 -102.5q-28 -67 -143 -269h-122z" />
    <glyph glyph-name="paragraph" unicode="&#xb6;" horiz-adv-x="600" 
 />
    <glyph glyph-name="periodcentered" unicode="&#xb7;" horiz-adv-x="584" 
d="M292 706q27 0 49.5 -9.5t38.5 -26t25 -39t9 -47.5t-9.5 -47.5t-26 -39t-39 -26t-47.5 -9.5t-47.5 9.5t-39 26t-26 39t-9.5 47.5q0 27 10 49t26.5 38.5t39 25.5t46.5 9z" />
    <glyph glyph-name="cedilla" unicode="&#xb8;" horiz-adv-x="756" 
d="M362 0h121l-89 -112q77 -24 110.5 -59t33.5 -91q0 -83 -58 -124t-155 -41q-76 0 -176 31l50 92q70 -43 132 -43q40 0 61 22t21 53q0 34 -36 59t-114 50z" />
    <glyph glyph-name="guillemotright" unicode="&#xbb;" horiz-adv-x="1360" 
d="M171 860l100 99l443 -441l-443 -443l-101 99l341 344zM647 860l100 99l443 -441l-443 -443l-101 99l341 344z" />
    <glyph glyph-name="questiondown" unicode="&#xbf;" horiz-adv-x="1012" 
d="M636 1063q24 0 46.5 -9.5t39.5 -26t27 -39t10 -47.5t-10 -47.5t-26.5 -39t-39 -26t-47.5 -9.5t-47.5 9.5t-39 26t-26 39t-9.5 47.5q0 24 9.5 46t26 39t39 27t47.5 10zM764 297q-116 -51 -201 -85t-141.5 -69.5t-84 -82.5t-27.5 -124q0 -60 17.5 -98.5t48.5 -60t73 -30
t92 -8.5q41 0 82.5 7t81 18t77.5 26t71 31q10 -41 17.5 -80.5t11.5 -80.5q-92 -38 -177.5 -57.5t-170.5 -19.5q-74 0 -146.5 15t-129.5 54.5t-92.5 108t-35.5 175.5q0 93 29.5 158t85 114t136.5 89.5t184 84.5v239l139 40z" />
    <glyph glyph-name="Agrave" unicode="&#xc0;" horiz-adv-x="1369" 
d="M737 1571h-122q-115 202 -143 269q-19 54 -18 102.5t36.5 81.5t97.5 33q56 0 121 -47l-51 -177zM1158 0l-189 489h-569l-189 -489h-191l570 1438h189l570 -1438h-191zM459 643h451l-226 585z" />
    <glyph glyph-name="Aacute" unicode="&#xc1;" horiz-adv-x="1369" 
d="M709 1833l-51 177q65 47 121 47q62 0 97.5 -33t36.5 -81.5t-18 -102.5q-28 -67 -143 -269h-122zM1158 0l-189 489h-569l-189 -489h-191l570 1438h189l570 -1438h-191zM459 643h451l-226 585z" />
    <glyph glyph-name="Acircumflex" unicode="&#xc2;" horiz-adv-x="1369" 
d="M367 1648l317 254l313 -254l-71 -87l-242 141l-246 -141zM1158 0l-189 489h-569l-189 -489h-191l570 1438h189l570 -1438h-191zM459 643h451l-226 585z" />
    <glyph glyph-name="Atilde" unicode="&#xc3;" horiz-adv-x="1369" 
d="M898 1778h100q-15 -95 -58 -146q-53 -61 -141 -61q-40 0 -130 34t-128 34q-31 0 -53 -25t-22 -51h-103q12 80 58 137q53 68 129 68q48 0 134 -35t124 -35q68 0 90 80zM1158 0l-189 489h-569l-189 -489h-191l570 1438h189l570 -1438h-191zM459 643h451l-226 585z" />
    <glyph glyph-name="Adieresis" unicode="&#xc4;" horiz-adv-x="1369" 
d="M464 1798q24 0 46 -9.5t38 -25.5t25.5 -38t9.5 -46q0 -26 -9.5 -48t-25.5 -38t-38 -25.5t-46 -9.5q-26 0 -48 9.5t-39 25.5q-36 33 -36 86q0 24 9.5 46t26.5 38t39 25.5t48 9.5zM906 1798q25 0 47 -9.5t39 -25.5t26 -38t9 -46q0 -53 -35 -86q-17 -16 -39 -25.5t-47 -9.5
q-24 0 -45.5 9.5t-38.5 25.5t-27 38t-10 48q0 24 10 46t27 38t38.5 25.5t45.5 9.5zM969 489h-569l-189 -489h-191l570 1438h189l570 -1438h-191zM910 643l-226 585l-225 -585h451z" />
    <glyph glyph-name="Aring" unicode="&#xc5;" horiz-adv-x="1369" 
d="M685 1922q37 0 69.5 -13.5t56.5 -37.5t37.5 -56.5t13.5 -69.5t-13.5 -69.5t-37.5 -56.5t-56.5 -37.5t-69.5 -13.5t-69.5 13.5t-56.5 37.5t-37.5 56.5t-13.5 69.5t13.5 69.5t37.5 56.5t56.5 37.5t69.5 13.5zM685 1828q-35 0 -59 -24t-24 -59t24 -59t59 -24t59 24t24 59
t-24 59t-59 24zM969 489h-569l-189 -489h-191l570 1438h189l570 -1438h-191zM910 643l-226 585l-225 -585h451z" />
    <glyph glyph-name="AE" unicode="&#xc6;" horiz-adv-x="1862" 
d="M1102 154h632v-154h-820v489h-415l-270 -489h-229l834 1438h878v-154h-610v-397h431v-154h-431v-579zM584 643h330v597z" />
    <glyph glyph-name="Ccedilla" unicode="&#xc7;" horiz-adv-x="1239" 
d="M721 -112q78 -24 111 -59t33 -91q0 -43 -16 -74t-44.5 -51.5t-67.5 -30t-85 -9.5q-42 0 -86 8.5t-90 22.5l50 92q40 -20 71.5 -31.5t60.5 -11.5q42 0 62 23t20 52q0 36 -37.5 60.5t-112.5 48.5l85 141q-279 17 -419.5 198.5t-140.5 521.5q0 378 156 570t462 192
q116 0 208.5 -20t178.5 -52l-52 -148q-41 15 -81 27t-80.5 20t-83.5 12t-90 4q-111 0 -191 -39.5t-132 -115t-77 -184t-25 -246.5q0 -142 25 -251t77 -183.5t132 -112.5t191 -38q102 0 194 17t183 45l47 -154q-81 -26 -171 -42.5t-194 -21.5z" />
    <glyph glyph-name="Egrave" unicode="&#xc8;" horiz-adv-x="1131" 
d="M667 1571h-122q-115 202 -143 269q-19 54 -18 102.5t36.5 81.5t97.5 33q56 0 121 -47l-51 -177zM182 1438h798v-154h-610v-397h432v-154h-432v-579h633v-154h-821v1438z" />
    <glyph glyph-name="Eacute" unicode="&#xc9;" horiz-adv-x="1131" 
d="M598 1833l-51 177q65 47 121 47q62 0 97.5 -33t36.5 -81.5t-18 -102.5q-28 -67 -143 -269h-122zM182 1438h798v-154h-610v-397h432v-154h-432v-579h633v-154h-821v1438z" />
    <glyph glyph-name="Ecircumflex" unicode="&#xca;" horiz-adv-x="1131" 
d="M274 1648l317 254l313 -254l-71 -87l-242 141l-246 -141zM182 1438h798v-154h-610v-397h432v-154h-432v-579h633v-154h-821v1438z" />
    <glyph glyph-name="Edieresis" unicode="&#xcb;" horiz-adv-x="1131" 
d="M361 1798q24 0 46 -9.5t38 -25.5t25.5 -38t9.5 -46q0 -26 -9.5 -48t-25.5 -38t-38 -25.5t-46 -9.5q-26 0 -48 9.5t-39 25.5q-36 33 -36 86q0 24 9.5 46t26.5 38t39 25.5t48 9.5zM803 1798q25 0 47 -9.5t39 -25.5t26 -38t9 -46q0 -53 -35 -86q-17 -16 -39 -25.5t-47 -9.5
q-24 0 -45.5 9.5t-38.5 25.5t-27 38t-10 48q0 24 10 46t27 38t38.5 25.5t45.5 9.5zM980 1438v-154h-610v-397h432v-154h-432v-579h633v-154h-821v1438h798z" />
    <glyph glyph-name="Igrave" unicode="&#xcc;" horiz-adv-x="596" 
d="M368 1571h-122q-115 202 -143 269q-19 54 -18 102.5t36.5 81.5t97.5 33q56 0 121 -47l-51 -177zM206 1438h188v-1438h-188v1438z" />
    <glyph glyph-name="Iacute" unicode="&#xcd;" horiz-adv-x="596" 
d="M340 1833l-51 177q65 47 121 47q62 0 97.5 -33t36.5 -81.5t-18 -102.5q-28 -67 -143 -269h-122zM204 1438h188v-1438h-188v1438z" />
    <glyph glyph-name="Icircumflex" unicode="&#xce;" horiz-adv-x="596" 
d="M-16 1648l317 254l313 -254l-71 -87l-242 141l-246 -141zM204 1438h188v-1438h-188v1438z" />
    <glyph glyph-name="Idieresis" unicode="&#xcf;" horiz-adv-x="596" 
d="M76 1798q24 0 46 -9.5t38 -25.5t25.5 -38t9.5 -46q0 -26 -9.5 -48t-25.5 -38t-38 -25.5t-46 -9.5q-26 0 -48 9.5t-39 25.5q-36 33 -36 86q0 24 9.5 46t26.5 38t39 25.5t48 9.5zM518 1798q25 0 47 -9.5t39 -25.5t26 -38t9 -46q0 -53 -35 -86q-17 -16 -39 -25.5t-47 -9.5
q-24 0 -45.5 9.5t-38.5 25.5t-27 38t-10 48q0 24 10 46t27 38t38.5 25.5t45.5 9.5zM392 1438v-1438h-188v1438h188z" />
    <glyph glyph-name="Eth" unicode="&#xd0;" horiz-adv-x="1376" 
d="M486 1438q123 0 228.5 -12.5t193.5 -43.5t154.5 -82.5t114.5 -131.5q47 -80 71 -190t24 -259t-24 -259t-71 -190q-48 -80 -114.5 -131.5t-154.5 -82.5t-193.5 -43.5t-228.5 -12.5h-304v650h-284v148h284v640h304zM517 154q153 0 259.5 30.5t174.5 99.5q67 69 97.5 175.5
t30.5 259.5t-30.5 259.5t-97.5 175.5q-68 69 -174.5 99.5t-259.5 30.5h-147v-486h284v-148h-284v-496h147z" />
    <glyph glyph-name="Ntilde" unicode="&#xd1;" horiz-adv-x="1529" 
d="M1019 1778h100q-15 -95 -58 -146q-53 -61 -141 -61q-40 0 -130 34t-128 34q-31 0 -53 -25t-22 -51h-103q12 80 58 137q53 68 129 68q48 0 134 -35t124 -35q68 0 90 80zM1351 -10h-220l-765 1202v-1192h-188v1438h220l765 -1202v1202h188v-1448z" />
    <glyph glyph-name="Ograve" unicode="&#xd2;" horiz-adv-x="1482" 
d="M827 1571h-122q-115 202 -143 269q-19 54 -18 102.5t36.5 81.5t97.5 33q56 0 121 -47l-51 -177zM1372 719q0 -361 -163 -552t-468 -191q-302 0 -466.5 190.5t-164.5 552.5q0 361 165 551t466 190q305 0 468 -191.5t163 -549.5zM1179 719q0 278 -109.5 431t-329.5 153
q-221 0 -329 -154.5t-108 -429.5q0 -135 25.5 -241.5t78 -184t137 -119t196.5 -41.5q220 0 329.5 153.5t109.5 432.5z" />
    <glyph glyph-name="Oacute" unicode="&#xd3;" horiz-adv-x="1482" 
d="M757 1833l-51 177q65 47 121 47q62 0 97.5 -33t36.5 -81.5t-18 -102.5q-28 -67 -143 -269h-122zM1372 719q0 -361 -163 -552t-468 -191q-302 0 -466.5 190.5t-164.5 552.5q0 361 165 551t466 190q305 0 468 -191.5t163 -549.5zM1179 719q0 278 -109.5 431t-329.5 153
q-221 0 -329 -154.5t-108 -429.5q0 -135 25.5 -241.5t78 -184t137 -119t196.5 -41.5q220 0 329.5 153.5t109.5 432.5z" />
    <glyph glyph-name="Ocircumflex" unicode="&#xd4;" horiz-adv-x="1482" 
d="M430 1648l317 254l313 -254l-71 -87l-242 141l-246 -141zM1372 719q0 -361 -163 -552t-468 -191q-302 0 -466.5 190.5t-164.5 552.5q0 361 165 551t466 190q305 0 468 -191.5t163 -549.5zM1179 719q0 278 -109.5 431t-329.5 153q-221 0 -329 -154.5t-108 -429.5
q0 -135 25.5 -241.5t78 -184t137 -119t196.5 -41.5q220 0 329.5 153.5t109.5 432.5z" />
    <glyph glyph-name="Otilde" unicode="&#xd5;" horiz-adv-x="1482" 
d="M943 1778h100q-15 -95 -58 -146q-53 -61 -141 -61q-40 0 -130 34t-128 34q-31 0 -53 -25t-22 -51h-103q12 80 58 137q53 68 129 68q48 0 134 -35t124 -35q68 0 90 80zM1372 719q0 -361 -163 -552t-468 -191q-302 0 -466.5 190.5t-164.5 552.5q0 361 165 551t466 190
q305 0 468 -191.5t163 -549.5zM1179 719q0 278 -109.5 431t-329.5 153q-221 0 -329 -154.5t-108 -429.5q0 -135 25.5 -241.5t78 -184t137 -119t196.5 -41.5q220 0 329.5 153.5t109.5 432.5z" />
    <glyph glyph-name="Odieresis" unicode="&#xd6;" horiz-adv-x="1482" 
d="M520 1798q24 0 46 -9.5t38 -25.5t25.5 -38t9.5 -46q0 -26 -9.5 -48t-25.5 -38t-38 -25.5t-46 -9.5q-26 0 -48 9.5t-39 25.5q-36 33 -36 86q0 24 9.5 46t26.5 38t39 25.5t48 9.5zM962 1798q25 0 47 -9.5t39 -25.5t26 -38t9 -46q0 -53 -35 -86q-17 -16 -39 -25.5t-47 -9.5
q-24 0 -45.5 9.5t-38.5 25.5t-27 38t-10 48q0 24 10 46t27 38t38.5 25.5t45.5 9.5zM1372 719q0 -181 -41.5 -320t-122 -233t-198 -142t-269.5 -48q-149 0 -266.5 47.5t-198.5 141t-123.5 232.5t-42.5 322q0 182 42.5 320.5t123.5 232t198.5 141t266.5 47.5
q153 0 270.5 -48.5t197.5 -143t121.5 -232.5t41.5 -317zM1179 719q0 135 -26.5 243.5t-80.5 184t-137 116t-195 40.5q-114 0 -197 -41.5t-136 -118t-78.5 -184.5t-25.5 -240q0 -133 25.5 -241.5t78.5 -185t136 -118t197 -41.5q112 0 195 40.5t137 116.5t80.5 184.5
t26.5 244.5z" />
    <glyph glyph-name="multiply" unicode="&#xd7;" horiz-adv-x="983" 
d="M833 289l-97 -97l-245 245l-244 -244l-96 97l244 244l-245 244l97 97l245 -245l245 245l96 -97l-244 -244z" />
    <glyph glyph-name="Oslash" unicode="&#xd8;" horiz-adv-x="1482" 
d="M1192 1438l-51 -103q231 -187 231 -616q0 -361 -163 -552t-468 -191q-139 0 -250 41l-9 -17h-159l41 84q-254 183 -254 635q0 361 165 551t466 190q156 0 277 -52l15 30h159zM445 247l499 1011q-88 45 -204 45q-221 0 -329 -154.5t-108 -429.5q0 -324 142 -472z
M1057 1165l-493 -1000q76 -32 176 -32q220 0 329.5 153.5t109.5 432.5q0 298 -122 446z" />
    <glyph glyph-name="Ugrave" unicode="&#xd9;" horiz-adv-x="1486" 
d="M807 1571h-122q-115 202 -143 269q-19 54 -18 102.5t36.5 81.5t97.5 33q56 0 121 -47l-51 -177zM1128 1438h188v-831q0 -314 -141 -472.5t-433 -158.5q-572 0 -572 631v831h188v-832q0 -110 19 -193.5t62 -148t119 -98t184 -33.5q88 0 155.5 22.5t110.5 62.5t70.5 100.5
t38.5 130t11 157.5v832z" />
    <glyph glyph-name="Uacute" unicode="&#xda;" horiz-adv-x="1486" 
d="M743 1833l-51 177q65 47 121 47q62 0 97.5 -33t36.5 -81.5t-18 -102.5q-28 -67 -143 -269h-122zM1128 1438h188v-831q0 -314 -141 -472.5t-433 -158.5q-572 0 -572 631v831h188v-832q0 -110 19 -193.5t62 -148t119 -98t184 -33.5q88 0 155.5 22.5t110.5 62.5t70.5 100.5
t38.5 130t11 157.5v832z" />
    <glyph glyph-name="Ucircumflex" unicode="&#xdb;" horiz-adv-x="1486" 
d="M426 1648l317 254l313 -254l-71 -87l-242 141l-246 -141zM1128 1438h188v-831q0 -314 -141 -472.5t-433 -158.5q-572 0 -572 631v831h188v-832q0 -110 19 -193.5t62 -148t119 -98t184 -33.5q88 0 155.5 22.5t110.5 62.5t70.5 100.5t38.5 130t11 157.5v832z" />
    <glyph glyph-name="Udieresis" unicode="&#xdc;" horiz-adv-x="1486" 
d="M522 1798q24 0 46 -9.5t38 -25.5t25.5 -38t9.5 -46q0 -26 -9.5 -48t-25.5 -38t-38 -25.5t-46 -9.5q-26 0 -48 9.5t-39 25.5q-36 33 -36 86q0 24 9.5 46t26.5 38t39 25.5t48 9.5zM964 1798q25 0 47 -9.5t39 -25.5t26 -38t9 -46q0 -53 -35 -86q-17 -16 -39 -25.5t-47 -9.5
q-24 0 -45.5 9.5t-38.5 25.5t-27 38t-10 48q0 24 10 46t27 38t38.5 25.5t45.5 9.5zM1316 1438v-831q0 -311 -139.5 -471t-434.5 -160q-148 0 -255.5 41t-178 121t-104.5 197.5t-34 271.5v831h188v-832q0 -106 18.5 -193t63 -149.5t118.5 -96.5t184 -34q113 0 187.5 34.5
t118.5 97t62 149.5t18 192v832h188z" />
    <glyph glyph-name="Yacute" unicode="&#xdd;" horiz-adv-x="1357" 
d="M688 1833l-51 177q65 47 121 47q62 0 97.5 -33t36.5 -81.5t-18 -102.5q-28 -67 -143 -269h-122zM1078 1438h214l-520 -790v-648h-187v648l-520 790h214l399 -636z" />
    <glyph glyph-name="Thorn" unicode="&#xde;" horiz-adv-x="1246" 
d="M375 1191h290q221 0 344 -112.5t123 -321.5q0 -216 -149 -327.5t-408 -111.5q-92 0 -202 16v-334h-188v1438h190v-247zM373 1037v-549q110 -18 195 -18q81 0 147 15.5t118.5 48t81.5 89t29 132.5q0 143 -78 212.5t-223 69.5h-270z" />
    <glyph glyph-name="germandbls" unicode="&#xdf;" horiz-adv-x="1240" 
d="M186 0v1104q0 173 134 266q120 86 293 86q175 0 290 -82q65 -47 97.5 -119.5t32.5 -154.5q0 -95 -39.5 -171t-120.5 -148q110 -39 173.5 -129t63.5 -216q0 -226 -135 -343.5t-369 -117.5q-62 0 -127 12l49 152q42 -9 81 -9q151 0 238 79t87 213q0 65 -22 114.5
t-52.5 77.5t-80 48t-88 27.5t-92.5 14.5l33 136q8 -1 95 -12q64 50 99.5 119t35.5 142q0 93 -59 149q-69 67 -190 67q-112 0 -183 -52.5t-71 -151.5v-1101h-173z" />
    <glyph glyph-name="agrave" unicode="&#xe0;" horiz-adv-x="1041" 
d="M613 1211h-122q-115 202 -143 269q-19 54 -18 102.5t36.5 81.5t97.5 33q56 0 121 -47l-51 -177zM229 856l-44 140q168 67 352 67q161 0 246 -54q97 -62 97 -211v-409q0 -82 2 -168q1 -51 10 -106q8 -52 21 -99l-164 -36q-23 67 -29 150l-20 2q-124 -156 -316 -156
q-140 0 -225 77.5t-85 218.5q0 105 46.5 172t131.5 113q134 73 375 73q32 0 86 -2v152q0 72 -44 104t-138 32q-137 0 -302 -60zM713 292v210q-27 2 -79 2q-88 0 -162 -15q-110 -22 -170.5 -69.5t-60.5 -136.5q0 -160 174 -160q90 0 168 48q64 40 130 121z" />
    <glyph glyph-name="aacute" unicode="&#xe1;" horiz-adv-x="1041" 
d="M550 1473l-51 177q65 47 121 47q62 0 97.5 -33t36.5 -81.5t-18 -102.5q-28 -67 -143 -269h-122zM229 856l-44 140q168 67 352 67q161 0 246 -54q97 -62 97 -211v-409q0 -82 2 -168q1 -51 10 -106q8 -52 21 -99l-164 -36q-23 67 -29 150l-20 2q-124 -156 -316 -156
q-140 0 -225 77.5t-85 218.5q0 105 46.5 172t131.5 113q134 73 375 73q32 0 86 -2v152q0 72 -44 104t-138 32q-137 0 -302 -60zM713 292v210q-27 2 -79 2q-88 0 -162 -15q-110 -22 -170.5 -69.5t-60.5 -136.5q0 -160 174 -160q90 0 168 48q64 40 130 121z" />
    <glyph glyph-name="acircumflex" unicode="&#xe2;" horiz-adv-x="1041" 
d="M204 1278l317 254l313 -254l-71 -87l-242 141l-246 -141zM229 856l-44 140q168 67 352 67q161 0 246 -54q97 -62 97 -211v-409q0 -82 2 -168q1 -51 10 -106q8 -52 21 -99l-164 -36q-23 67 -29 150l-20 2q-124 -156 -316 -156q-140 0 -225 77.5t-85 218.5q0 105 46.5 172
t131.5 113q134 73 375 73q32 0 86 -2v152q0 72 -44 104t-138 32q-137 0 -302 -60zM713 292v210q-27 2 -79 2q-88 0 -162 -15q-110 -22 -170.5 -69.5t-60.5 -136.5q0 -160 174 -160q90 0 168 48q64 40 130 121z" />
    <glyph glyph-name="atilde" unicode="&#xe3;" horiz-adv-x="1041" 
d="M706 1408h100q-15 -95 -58 -146q-53 -61 -141 -61q-40 0 -130 34t-128 34q-31 0 -53 -25t-22 -51h-103q12 80 58 137q53 68 129 68q48 0 134 -35t124 -35q68 0 90 80zM229 856l-44 140q168 67 352 67q161 0 246 -54q97 -62 97 -211v-409q0 -82 2 -168q1 -51 10 -106
q8 -52 21 -99l-164 -36q-23 67 -29 150l-20 2q-124 -156 -316 -156q-140 0 -225 77.5t-85 218.5q0 105 46.5 172t131.5 113q134 73 375 73q32 0 86 -2v152q0 72 -44 104t-138 32q-137 0 -302 -60zM713 292v210q-27 2 -79 2q-88 0 -162 -15q-110 -22 -170.5 -69.5
t-60.5 -136.5q0 -160 174 -160q90 0 168 48q64 40 130 121z" />
    <glyph glyph-name="adieresis" unicode="&#xe4;" horiz-adv-x="1041" 
d="M283 1428q24 0 46 -9.5t38 -25.5t25.5 -38t9.5 -46q0 -26 -9.5 -48t-25.5 -38t-38 -25.5t-46 -9.5q-26 0 -48 9.5t-39 25.5q-36 33 -36 86q0 24 9.5 46t26.5 38t39 25.5t48 9.5zM725 1428q25 0 47 -9.5t39 -25.5t26 -38t9 -46q0 -53 -35 -86q-17 -16 -39 -25.5t-47 -9.5
q-24 0 -45.5 9.5t-38.5 25.5t-27 38t-10 48q0 24 10 46t27 38t38.5 25.5t45.5 9.5zM185 996q81 32 170 49.5t182 17.5q75 0 136.5 -12t109.5 -42t72.5 -81.5t24.5 -129.5v-409q0 -54 0.5 -95t1.5 -73q1 -33 3.5 -58t6.5 -48q4 -24 8.5 -46.5t12.5 -52.5l-164 -36
q-12 35 -19 72t-10 78l-20 2q-35 -44 -73.5 -73.5t-79 -48t-82 -26.5t-81.5 -8q-68 0 -125 19t-98 56.5t-64 93t-23 127.5q0 56 13 99.5t37 78t56.5 60.5t71.5 47q78 42 175 57.5t200 15.5q20 0 43 -0.5t43 -1.5v152q0 72 -44 104t-138 32q-85 0 -160.5 -18t-141.5 -42z
M713 502q-20 2 -39.5 2h-39.5q-33 0 -75 -3t-87 -12q-50 -10 -92.5 -25.5t-73 -40t-48 -58.5t-17.5 -82q0 -86 47 -123t127 -37q48 0 89.5 12.5t78.5 35.5q36 23 68 53.5t62 67.5v210z" />
    <glyph glyph-name="aring" unicode="&#xe5;" horiz-adv-x="1041" 
d="M514 1552q37 0 69.5 -13.5t56.5 -37.5t37.5 -56.5t13.5 -69.5t-13.5 -69.5t-37.5 -56.5t-56.5 -37.5t-69.5 -13.5t-69.5 13.5t-56.5 37.5t-37.5 56.5t-13.5 69.5t13.5 69.5t37.5 56.5t56.5 37.5t69.5 13.5zM514 1458q-35 0 -59 -24t-24 -59t24 -59t59 -24t59 24t24 59
t-24 59t-59 24zM185 996q81 32 170 49.5t182 17.5q75 0 136.5 -12t109.5 -42t72.5 -81.5t24.5 -129.5v-409q0 -54 0.5 -95t1.5 -73q1 -33 3.5 -58t6.5 -48q4 -24 8.5 -46.5t12.5 -52.5l-164 -36q-12 35 -19 72t-10 78l-20 2q-35 -44 -73.5 -73.5t-79 -48t-82 -26.5t-81.5 -8
q-68 0 -125 19t-98 56.5t-64 93t-23 127.5q0 56 13 99.5t37 78t56.5 60.5t71.5 47q78 42 175 57.5t200 15.5q20 0 43 -0.5t43 -1.5v152q0 72 -44 104t-138 32q-85 0 -160.5 -18t-141.5 -42zM713 502q-20 2 -39.5 2h-39.5q-33 0 -75 -3t-87 -12q-50 -10 -92.5 -25.5t-73 -40
t-48 -58.5t-17.5 -82q0 -86 47 -123t127 -37q48 0 89.5 12.5t78.5 35.5q36 23 68 53.5t62 67.5v210z" />
    <glyph glyph-name="ae" unicode="&#xe6;" horiz-adv-x="1705" 
d="M1612 524v-55h-736q5 -348 309 -348q81 0 209 34q48 13 112 38l50 -135q-168 -67 -310 -78q-33 -4 -73 -4q-230 0 -353 143q-22 26 -43 60q-53 -68 -106 -111.5t-106 -62t-91 -24t-90 -5.5q-140 0 -225 77.5t-85 218.5q0 105 46.5 172t131.5 113q134 73 375 73l86 -1v151
q0 72 -44 104t-138 32q-137 0 -302 -60l-44 140q168 67 352 67q131 0 196 -29t107 -111q53 67 128.5 103.5t194.5 36.5q199 0 313 -114q136 -138 136 -425zM885 607h554q-8 159 -77 235t-199 76q-129 0 -196.5 -75t-81.5 -236zM583 171q76 48 143 133q-23 86 -23 186v13
q-23 1 -69 1q-88 0 -162 -15q-110 -22 -170.5 -69.5t-60.5 -136.5q0 -160 174 -160q90 0 168 48z" />
    <glyph glyph-name="ccedilla" unicode="&#xe7;" horiz-adv-x="973" 
d="M535 -112q78 -24 111 -59t33 -91q0 -43 -16 -74t-44.5 -51.5t-67.5 -30t-85 -9.5q-42 0 -86 8.5t-90 22.5l50 92q40 -20 71.5 -31.5t60.5 -11.5q42 0 62 23t20 52q0 36 -37.5 60.5t-112.5 48.5l86 142q-102 10 -176.5 49.5t-123 105.5t-72.5 158t-24 208q0 136 34.5 241
t100 176.5t160 108.5t214.5 37q61 0 124 -12.5t128 -31.5l-43 -140q-52 17 -96.5 27t-93.5 10q-170 0 -262 -98.5t-92 -297.5q0 -93 13.5 -166.5t48 -125t94 -78.5t151.5 -27q60 0 129.5 15.5t147.5 38.5l43 -140q-67 -23 -142 -39t-147 -21z" />
    <glyph glyph-name="egrave" unicode="&#xe8;" horiz-adv-x="1102" 
d="M494 1181q-15 26 -35.5 62t-40.5 73.5t-38.5 72.5t-28.5 61q-16 39 -18 78t11.5 69.5t43.5 50t79 19.5q28 0 55.5 -10t65.5 -37l-51 -177l79 -262h-122zM946 58q-111 -44 -208.5 -63t-174.5 -19q-118 0 -206 37.5t-146.5 105.5t-88 162.5t-29.5 208.5q0 70 10 140
t32 133.5t57.5 118.5t86.5 95t119 63t155 23q223 0 336 -139.5t113 -399.5v-55h-732q0 -84 18 -148.5t55.5 -109t95 -67.5t136.5 -23q44 0 87.5 6.5t84.5 17t78.5 23.5t70.5 25zM829 607q-8 162 -77.5 236.5t-198.5 74.5t-196.5 -74.5t-81.5 -236.5h554z" />
    <glyph glyph-name="eacute" unicode="&#xe9;" horiz-adv-x="1102" 
d="M519 1620q38 27 65.5 37t55.5 10q49 0 79 -19.5t43.5 -50t11.5 -69.5t-18 -78q-11 -26 -29 -61t-38 -72.5t-40.5 -73.5t-35.5 -62h-122l79 262zM946 58q-111 -44 -208.5 -63t-174.5 -19q-118 0 -206 37.5t-146.5 105.5t-88 162.5t-29.5 208.5q0 70 10 140t32 133.5
t57.5 118.5t86.5 95t119 63t155 23q223 0 336 -139.5t113 -399.5v-55h-732q0 -84 18 -148.5t55.5 -109t95 -67.5t136.5 -23q44 0 87.5 6.5t84.5 17t78.5 23.5t70.5 25zM829 607q-8 162 -77.5 236.5t-198.5 74.5t-196.5 -74.5t-81.5 -236.5h554z" />
    <glyph glyph-name="ecircumflex" unicode="&#xea;" horiz-adv-x="1102" 
d="M554 1522l313 -254l-71 -87l-242 141l-246 -141l-71 87zM946 58q-111 -44 -208.5 -63t-174.5 -19q-118 0 -206 37.5t-146.5 105.5t-88 162.5t-29.5 208.5q0 70 10 140t32 133.5t57.5 118.5t86.5 95t119 63t155 23q223 0 336 -139.5t113 -399.5v-55h-732q0 -84 18 -148.5
t55.5 -109t95 -67.5t136.5 -23q44 0 87.5 6.5t84.5 17t78.5 23.5t70.5 25zM829 607q-8 162 -77.5 236.5t-198.5 74.5t-196.5 -74.5t-81.5 -236.5h554z" />
    <glyph glyph-name="edieresis" unicode="&#xeb;" horiz-adv-x="1102" 
d="M334 1418q24 0 45.5 -9.5t38 -26t26 -38t9.5 -45.5q0 -26 -9.5 -48t-25.5 -38t-37.5 -25.5t-46.5 -9.5q-26 0 -48 9.5t-39 25.5t-26.5 38t-9.5 48q0 25 9.5 46.5t26.5 37.5t39 25.5t48 9.5zM776 1418q25 0 47 -9.5t38.5 -25.5t26 -37.5t9.5 -46.5q0 -27 -10 -49.5
t-26.5 -38t-38.5 -24.5t-46 -9t-46 9.5t-38.5 26t-26.5 38.5t-10 47t10.5 46.5t27.5 37.5t38.5 25.5t44.5 9.5zM946 58q-111 -44 -208.5 -63t-174.5 -19q-118 0 -206 37.5t-146.5 105.5t-88 162.5t-29.5 208.5q0 70 10 140t32 133.5t57.5 118.5t86.5 95t119 63t155 23
q223 0 336 -139.5t113 -399.5v-55h-732q0 -84 18 -148.5t55.5 -109t95 -67.5t136.5 -23q44 0 87.5 6.5t84.5 17t78.5 23.5t70.5 25zM829 607q-8 162 -77.5 236.5t-198.5 74.5t-196.5 -74.5t-81.5 -236.5h554z" />
    <glyph glyph-name="igrave" unicode="&#xec;" horiz-adv-x="534" 
d="M326 1211h-122q-115 202 -143 269q-19 54 -18 102.5t36.5 81.5t97.5 33q56 0 121 -47l-51 -177zM183 1040h172v-1040h-172v1040z" />
    <glyph glyph-name="iacute" unicode="&#xed;" horiz-adv-x="600" 
d="M299 1473l-51 177q65 47 121 47q62 0 97.5 -33t36.5 -81.5t-18 -102.5q-28 -67 -143 -269h-122zM181 1040h172v-1040h-172v1040z" />
    <glyph glyph-name="icircumflex" unicode="&#xee;" horiz-adv-x="600" 
d="M-16 1278l317 254l313 -254l-71 -87l-242 141l-246 -141zM212 1040h172v-1040h-172v1040z" />
    <glyph glyph-name="idieresis" unicode="&#xef;" horiz-adv-x="534" 
d="M47 1428q24 0 46 -9.5t38 -25.5t25.5 -38t9.5 -46q0 -26 -9.5 -48t-25.5 -38t-38 -25.5t-46 -9.5q-26 0 -48 9.5t-39 25.5q-36 33 -36 86q0 24 9.5 46t26.5 38t39 25.5t48 9.5zM489 1428q25 0 47 -9.5t39 -25.5t26 -38t9 -46q0 -53 -35 -86q-17 -16 -39 -25.5t-47 -9.5
q-24 0 -45.5 9.5t-38.5 25.5t-27 38t-10 48q0 24 10 46t27 38t38.5 25.5t45.5 9.5zM353 1040v-1040h-172v1040h172z" />
    <glyph glyph-name="eth" unicode="&#xf0;" horiz-adv-x="1130" 
d="M769 1405l-61 -50q161 -104 246 -314q78 -193 86 -477q4 -134 -23 -241t-84 -185t-150.5 -120t-218.5 -42q-119 0 -212.5 42t-149 113.5t-84 159.5t-28.5 187q0 226 113 353q108 119 302 119q162 0 314 -103q-51 293 -244 400l-291 -237v151l164 134q-105 24 -237 17v148
q219 14 382 -47l176 143v-151zM564 133q64 0 114.5 20t83.5 55t54.5 85t30.5 106.5t9 122.5q0 83 -14 144q-66 55 -148.5 91t-150.5 36q-123 0 -194 -71q-75 -78 -75 -249q0 -157 74.5 -248.5t215.5 -91.5z" />
    <glyph glyph-name="ntilde" unicode="&#xf1;" horiz-adv-x="1147" 
d="M810 1408h100q-15 -95 -58 -146q-53 -61 -141 -61q-40 0 -130 34t-128 34q-31 0 -53 -25t-22 -51h-103q12 80 58 137q53 68 129 68q48 0 134 -35t124 -35q68 0 90 80zM135 1022l166 37q19 -60 27 -116q4 -27 10 -107h21q55 101 136 161q89 66 188 66q149 0 227 -72
q67 -61 93 -187q17 -86 17 -256v-548h-172v596q0 149 -29 213q-43 95 -173 95q-92 0 -180 -88q-59 -59 -126 -173v-643h-172v640q0 135 -7 233q-4 61 -26 149z" />
    <glyph glyph-name="ograve" unicode="&#xf2;" horiz-adv-x="1113" 
d="M496 1211q-15 26 -35.5 62t-40.5 73.5t-38.5 72.5t-28.5 61q-16 39 -18 78t11.5 69.5t43.5 50t79 19.5q28 0 55.5 -10t65.5 -37l-51 -177l79 -262h-122zM555 1063q49 0 102 -7.5t104 -28.5q51 -22 96.5 -59.5t80.5 -97.5q35 -61 55 -146.5t20 -203.5t-20 -203.5
t-55 -145.5q-35 -61 -80.5 -99t-96.5 -59q-51 -22 -104 -29.5t-102 -7.5q-48 0 -100.5 7.5t-103.5 29.5q-51 21 -96 59t-80 99q-35 60 -55 145.5t-20 203.5t20 203.5t55 146.5q35 60 80 97.5t96 59.5q51 21 103 28.5t101 7.5zM555 922q-57 0 -107.5 -18t-88.5 -63
q-39 -46 -62 -123t-23 -198q0 -120 23 -197.5t62 -122.5q38 -46 88.5 -63.5t107.5 -17.5q58 0 109.5 17.5t90.5 63.5q39 45 61.5 122.5t22.5 197.5q0 121 -22.5 198t-61.5 123q-39 45 -90.5 63t-109.5 18z" />
    <glyph glyph-name="oacute" unicode="&#xf3;" horiz-adv-x="1113" 
d="M517 1650q38 27 65.5 37t55.5 10q49 0 79 -19.5t43.5 -50t11.5 -69.5t-18 -78q-11 -26 -29 -61t-38 -72.5t-40.5 -73.5t-35.5 -62h-122l79 262zM555 1063q49 0 102 -7.5t104 -28.5q51 -22 96.5 -59.5t80.5 -97.5q35 -61 55 -146.5t20 -203.5t-20 -203.5t-55 -145.5
q-35 -61 -80.5 -99t-96.5 -59q-51 -22 -104 -29.5t-102 -7.5q-48 0 -100.5 7.5t-103.5 29.5q-51 21 -96 59t-80 99q-35 60 -55 145.5t-20 203.5t20 203.5t55 146.5q35 60 80 97.5t96 59.5q51 21 103 28.5t101 7.5zM555 922q-57 0 -107.5 -18t-88.5 -63q-39 -46 -62 -123
t-23 -198q0 -120 23 -197.5t62 -122.5q38 -46 88.5 -63.5t107.5 -17.5q58 0 109.5 17.5t90.5 63.5q39 45 61.5 122.5t22.5 197.5q0 121 -22.5 198t-61.5 123q-39 45 -90.5 63t-109.5 18z" />
    <glyph glyph-name="ocircumflex" unicode="&#xf4;" horiz-adv-x="1113" 
d="M561 1532l313 -254l-71 -87l-242 141l-246 -141l-71 87zM555 1063q49 0 102 -7.5t104 -28.5q51 -22 96.5 -59.5t80.5 -97.5q35 -61 55 -146.5t20 -203.5t-20 -203.5t-55 -145.5q-35 -61 -80.5 -99t-96.5 -59q-51 -22 -104 -29.5t-102 -7.5q-48 0 -100.5 7.5t-103.5 29.5
q-51 21 -96 59t-80 99q-35 60 -55 145.5t-20 203.5t20 203.5t55 146.5q35 60 80 97.5t96 59.5q51 21 103 28.5t101 7.5zM555 922q-57 0 -107.5 -18t-88.5 -63q-39 -46 -62 -123t-23 -198q0 -120 23 -197.5t62 -122.5q38 -46 88.5 -63.5t107.5 -17.5q58 0 109.5 17.5
t90.5 63.5q39 45 61.5 122.5t22.5 197.5q0 121 -22.5 198t-61.5 123q-39 45 -90.5 63t-109.5 18z" />
    <glyph glyph-name="otilde" unicode="&#xf5;" horiz-adv-x="1113" 
d="M874 1408q-7 -42 -21 -80t-37 -66q-24 -28 -58.5 -44.5t-82.5 -16.5q-29 0 -62.5 10.5t-67.5 23.5t-67 23.5t-61 10.5q-15 0 -29 -7t-24 -18t-16 -24.5t-6 -26.5h-103q5 34 19.5 70.5t38.5 66.5q23 30 55 49t74 19q37 0 69.5 -11t64.5 -24t62 -24t62 -11q38 0 59 22.5
t31 57.5h100zM555 1063q49 0 102 -7.5t104 -28.5q51 -22 96.5 -59.5t80.5 -97.5q35 -61 55 -146.5t20 -203.5t-20 -203.5t-55 -145.5q-35 -61 -80.5 -99t-96.5 -59q-51 -22 -104 -29.5t-102 -7.5q-48 0 -100.5 7.5t-103.5 29.5q-51 21 -96 59t-80 99q-35 60 -55 145.5
t-20 203.5t20 203.5t55 146.5q35 60 80 97.5t96 59.5q51 21 103 28.5t101 7.5zM555 922q-57 0 -107.5 -18t-88.5 -63q-39 -46 -62 -123t-23 -198q0 -120 23 -197.5t62 -122.5q38 -46 88.5 -63.5t107.5 -17.5q58 0 109.5 17.5t90.5 63.5q39 45 61.5 122.5t22.5 197.5
q0 121 -22.5 198t-61.5 123q-39 45 -90.5 63t-109.5 18z" />
    <glyph glyph-name="odieresis" unicode="&#xf6;" horiz-adv-x="1113" 
d="M341 1428q24 0 46 -9.5t38 -25.5t25.5 -38t9.5 -46q0 -26 -9.5 -48t-25.5 -38t-38 -25.5t-46 -9.5q-26 0 -48 9.5t-39 25.5q-36 33 -36 86q0 24 9.5 46t26.5 38t39 25.5t48 9.5zM783 1428q25 0 47 -9.5t39 -25.5t26 -38t9 -46q0 -53 -35 -86q-17 -16 -39 -25.5t-47 -9.5
q-24 0 -45.5 9.5t-38.5 25.5t-27 38t-10 48q0 24 10 46t27 38t38.5 25.5t45.5 9.5zM555 1063q49 0 102 -7.5t104 -28.5q51 -22 96.5 -59.5t80.5 -97.5q35 -61 55 -146.5t20 -203.5t-20 -203.5t-55 -145.5q-35 -61 -80.5 -99t-96.5 -59q-51 -22 -104 -29.5t-102 -7.5
q-48 0 -100.5 7.5t-103.5 29.5q-51 21 -96 59t-80 99q-35 60 -55 145.5t-20 203.5t20 203.5t55 146.5q35 60 80 97.5t96 59.5q51 21 103 28.5t101 7.5zM555 922q-57 0 -107.5 -18t-88.5 -63q-39 -46 -62 -123t-23 -198q0 -120 23 -197.5t62 -122.5q38 -46 88.5 -63.5
t107.5 -17.5q58 0 109.5 17.5t90.5 63.5q39 45 61.5 122.5t22.5 197.5q0 121 -22.5 198t-61.5 123q-39 45 -90.5 63t-109.5 18z" />
    <glyph glyph-name="divide" unicode="&#xf7;" horiz-adv-x="1130" 
d="M565 769q-22 0 -41 8.5t-33.5 23t-23 34t-8.5 41.5t8.5 41t23 33.5t33.5 23t41 8.5t41.5 -8.5t34 -23t23 -33.5t8.5 -41t-8.5 -41.5t-23 -34t-34 -23t-41.5 -8.5zM151 471v137h828v-137h-828zM565 310q22 0 41.5 -8.5t34 -23t23 -34t8.5 -41.5t-8.5 -41t-23 -33.5
t-34 -23t-41.5 -8.5t-41 8.5t-33.5 23t-23 33.5t-8.5 41t8.5 41.5t23 34t33.5 23t41 8.5z" />
    <glyph glyph-name="oslash" unicode="&#xf8;" horiz-adv-x="1113" 
d="M856 968q48 -39 82 -98q35 -61 55 -146.5t20 -203.5t-20 -203.5t-55 -145.5q-35 -61 -80.5 -99t-96.5 -59q-51 -22 -104 -29.5t-102 -7.5q-42 0 -86.5 5.5t-89.5 20.5l-99 -201h-159l134 271q-23 20 -43 44t-37 55q-35 60 -55 145.5t-20 203.5t20 203.5t55 146.5
q35 60 80 97.5t96 59.5q51 21 103 28.5t101 7.5q42 0 87 -5.5t90 -19.5l99 201h159zM665 904q-26 10 -53.5 14t-56.5 4q-57 0 -107.5 -18t-88.5 -63q-39 -46 -62 -123t-23 -198q0 -100 16 -170t45 -116zM446 137q26 -10 53 -14t56 -4q58 0 109.5 17.5t90.5 63.5
q39 45 61.5 122.5t22.5 197.5q0 102 -16 172t-45 117z" />
    <glyph glyph-name="ugrave" unicode="&#xf9;" horiz-adv-x="1158" 
d="M631 1211h-122q-115 202 -143 269q-19 54 -18 102.5t36.5 81.5t97.5 33q56 0 121 -47l-51 -177zM1028 18l-166 -37q-19 60 -27 116q-4 26 -10 106h-21q-55 -101 -136 -161q-89 -66 -188 -66q-149 0 -227 72q-67 61 -93 187q-17 86 -17 256v549h172v-597q0 -149 29 -213
q43 -95 173 -95q92 0 180 88q59 59 126 173v644h172v-642q0 -133 7 -231q4 -61 26 -149z" />
    <glyph glyph-name="uacute" unicode="&#xfa;" horiz-adv-x="1158" 
d="M572 1473l-51 177q65 47 121 47q62 0 97.5 -33t36.5 -81.5t-18 -102.5q-28 -67 -143 -269h-122zM1028 18l-166 -37q-19 60 -27 116q-4 26 -10 106h-21q-55 -101 -136 -161q-89 -66 -188 -66q-149 0 -227 72q-67 61 -93 187q-17 86 -17 256v549h172v-597q0 -149 29 -213
q43 -95 173 -95q92 0 180 88q59 59 126 173v644h172v-642q0 -133 7 -231q4 -61 26 -149z" />
    <glyph glyph-name="ucircumflex" unicode="&#xfb;" horiz-adv-x="1158" 
d="M254 1278l317 254l313 -254l-71 -87l-242 141l-246 -141zM1028 18l-166 -37q-19 60 -27 116q-4 26 -10 106h-21q-55 -101 -136 -161q-89 -66 -188 -66q-149 0 -227 72q-67 61 -93 187q-17 86 -17 256v549h172v-597q0 -149 29 -213q43 -95 173 -95q92 0 180 88
q59 59 126 173v644h172v-642q0 -133 7 -231q4 -61 26 -149z" />
    <glyph glyph-name="udieresis" unicode="&#xfc;" horiz-adv-x="1158" 
d="M345 1428q24 0 46 -9.5t38 -25.5t25.5 -38t9.5 -46q0 -26 -9.5 -48t-25.5 -38t-38 -25.5t-46 -9.5q-26 0 -48 9.5t-39 25.5q-36 33 -36 86q0 24 9.5 46t26.5 38t39 25.5t48 9.5zM787 1428q25 0 47 -9.5t39 -25.5t26 -38t9 -46q0 -53 -35 -86q-17 -16 -39 -25.5t-47 -9.5
q-24 0 -45.5 9.5t-38.5 25.5t-27 38t-10 48q0 24 10 46t27 38t38.5 25.5t45.5 9.5zM862 -19q-10 31 -16.5 60.5t-10.5 55.5t-6 51.5t-4 54.5h-21q-26 -48 -60 -89t-76 -72t-89 -48.5t-99 -17.5q-78 0 -133.5 18.5t-93.5 53.5t-59.5 82.5t-33.5 104.5q-11 57 -14 122t-3 134
v549h172v-597q0 -60 4.5 -115t24.5 -98t60.5 -69t112.5 -26q52 0 97 25t83 63q39 39 70 85t56 88v644h172v-642q0 -81 2 -135t5 -96t9.5 -75.5t16.5 -73.5z" />
    <glyph glyph-name="yacute" unicode="&#xfd;" horiz-adv-x="1186" 
d="M558 1620q38 27 65.5 37t55.5 10q49 0 79 -19.5t43.5 -50t11.5 -69.5t-18 -78q-11 -26 -29 -61t-38 -72.5t-40.5 -73.5t-35.5 -62h-122l79 262zM1010 1040v-1063q0 -99 -32.5 -171t-90 -119t-136.5 -69.5t-172 -22.5q-84 0 -169 14.5t-162 40.5q13 35 27 68l28 66
q24 -8 57.5 -17t71 -16.5t77 -12t76.5 -4.5q58 0 105 15.5t80 46.5t50.5 76.5t17.5 104.5v226h-19q-26 -47 -60 -88.5t-75 -72.5t-88.5 -48.5t-100.5 -17.5q-73 0 -127 16.5t-92.5 49t-63 81t-37.5 112.5q-11 57 -14 122t-3 134v549h172v-597q0 -65 6 -121.5t26.5 -98
t60.5 -65t109 -23.5q51 0 96 24.5t83 62.5t69.5 84t57.5 90v644h172z" />
    <glyph glyph-name="thorn" unicode="&#xfe;" horiz-adv-x="1074" 
d="M313 838h15q52 108 115 160q77 64 188 64q78 0 139 -28.5t100.5 -77t65.5 -117.5t37 -144t11 -162q0 -98 -15.5 -181t-50 -153.5t-86.5 -119.5t-128.5 -76.5t-171.5 -27.5q-94 0 -221 25v-401h-171v1841h170v-605zM311 617v-466q113 -30 208 -30q81 0 139.5 29.5t91.5 83
t48 119.5t15 149q0 56 -2.5 98.5t-9 92t-20.5 84.5t-35 65t-54.5 45.5t-77.5 15.5q-106 0 -184 -85q-56 -62 -119 -201z" />
    <glyph glyph-name="ydieresis" unicode="&#xff;" horiz-adv-x="1186" 
d="M373 1418q24 0 45.5 -9.5t38 -26t26 -38t9.5 -45.5q0 -26 -9.5 -48t-25.5 -38t-37.5 -25.5t-46.5 -9.5q-26 0 -48 9.5t-39 25.5t-26.5 38t-9.5 48q0 25 9.5 46.5t26.5 37.5t39 25.5t48 9.5zM815 1418q25 0 47 -9.5t38.5 -25.5t26 -37.5t9.5 -46.5q0 -27 -10 -49.5
t-26.5 -38t-38.5 -24.5t-46 -9t-46 9.5t-38.5 26t-26.5 38.5t-10 47t10.5 46.5t27.5 37.5t38.5 25.5t44.5 9.5zM1010 1040v-1063q0 -99 -32.5 -171t-90 -119t-136.5 -69.5t-172 -22.5q-84 0 -169 14.5t-162 40.5q13 35 27 68l28 66q24 -8 57.5 -17t71 -16.5t77 -12
t76.5 -4.5q58 0 105 15.5t80 46.5t50.5 76.5t17.5 104.5v226h-19q-26 -47 -60 -88.5t-75 -72.5t-88.5 -48.5t-100.5 -17.5q-73 0 -127 16.5t-92.5 49t-63 81t-37.5 112.5q-11 57 -14 122t-3 134v549h172v-597q0 -65 6 -121.5t26.5 -98t60.5 -65t109 -23.5q51 0 96 24.5
t83 62.5t69.5 84t57.5 90v644h172z" />
    <glyph glyph-name="Amacron" unicode="&#x100;" horiz-adv-x="1369" 
d="M427 1719h513v-121h-513v121zM1158 0l-189 489h-569l-189 -489h-191l570 1438h189l570 -1438h-191zM459 643h451l-226 585z" />
    <glyph glyph-name="amacron" unicode="&#x101;" horiz-adv-x="1041" 
d="M267 1359h513v-121h-513v121zM229 856l-44 140q168 67 352 67q161 0 246 -54q97 -62 97 -211v-409q0 -82 2 -168q1 -51 10 -106q8 -52 21 -99l-164 -36q-23 67 -29 150l-20 2q-124 -156 -316 -156q-140 0 -225 77.5t-85 218.5q0 105 46.5 172t131.5 113q134 73 375 73
q32 0 86 -2v152q0 72 -44 104t-138 32q-137 0 -302 -60zM713 292v210q-27 2 -79 2q-88 0 -162 -15q-110 -22 -170.5 -69.5t-60.5 -136.5q0 -160 174 -160q90 0 168 48q64 40 130 121z" />
    <glyph glyph-name="Abreve" unicode="&#x102;" horiz-adv-x="1369" 
d="M893 1887h76q-16 -82 -33.5 -123t-52.5 -82q-38 -45 -90 -69.5t-107 -24.5q-109 0 -182.5 76t-104.5 223h76q31 -81 82.5 -117t130.5 -36q75 0 124.5 36t80.5 117zM1158 0l-189 489h-569l-189 -489h-191l570 1438h189l570 -1438h-191zM459 643h451l-226 585z" />
    <glyph glyph-name="abreve" unicode="&#x103;" horiz-adv-x="1041" 
d="M711 1517h76q-16 -82 -33.5 -123t-52.5 -82q-38 -45 -90 -69.5t-107 -24.5q-109 0 -182.5 76t-104.5 223h76q31 -81 82.5 -117t130.5 -36q75 0 124.5 36t80.5 117zM229 856l-44 140q168 67 352 67q161 0 246 -54q97 -62 97 -211v-409q0 -82 2 -168q1 -51 10 -106
q8 -52 21 -99l-164 -36q-23 67 -29 150l-20 2q-124 -156 -316 -156q-140 0 -225 77.5t-85 218.5q0 105 46.5 172t131.5 113q134 73 375 73q32 0 86 -2v152q0 72 -44 104t-138 32q-137 0 -302 -60zM713 292v210q-27 2 -79 2q-88 0 -162 -15q-110 -22 -170.5 -69.5
t-60.5 -136.5q0 -160 174 -160q90 0 168 48q64 40 130 121z" />
    <glyph glyph-name="Aogonek" unicode="&#x104;" horiz-adv-x="1369" 
d="M1349 0h-84q-58 -70 -83 -113.5t-25 -90.5q0 -92 71 -92q37 0 102 25l-5 -90q-71 -47 -149 -47q-65 0 -106 44.5t-41 121.5q0 36 7.5 65.5t29 62t37.5 52t55 62.5l-189 489h-569l-189 -489h-191l570 1438h189zM459 643h451l-226 585z" />
    <glyph glyph-name="aogonek" unicode="&#x105;" horiz-adv-x="1041" 
d="M913 16l-68 -15q-59 -71 -84 -114t-25 -91q0 -92 71 -92q37 0 102 25l-5 -90q-71 -47 -149 -47q-65 0 -106 44.5t-41 121.5q0 30 7.5 57.5t15 45.5t30 48t34.5 43.5t46 52.5q-17 59 -21 125l-20 2q-124 -156 -316 -156q-140 0 -225 77.5t-85 218.5q0 105 46.5 172
t131.5 113q134 73 375 73q32 0 86 -2v152q0 72 -44 104t-138 32q-137 0 -302 -60l-44 140q168 67 352 67q161 0 246 -54q97 -62 97 -211v-409q0 -82 2 -168q1 -51 10 -106q8 -52 21 -99zM713 292v210q-27 2 -79 2q-88 0 -162 -15q-110 -22 -170.5 -69.5t-60.5 -136.5
q0 -160 174 -160q90 0 168 48q64 40 130 121z" />
    <glyph glyph-name="Cacute" unicode="&#x106;" horiz-adv-x="1239" 
d="M695 2017q38 27 65.5 37t55.5 10q49 0 79 -19.5t43.5 -50t11.5 -69.5t-18 -78q-11 -26 -29 -61t-38 -72.5t-40.5 -73.5t-35.5 -62h-122l79 262zM1157 41q-93 -29 -196.5 -47t-227.5 -18q-306 0 -462 183t-156 539q0 378 156 570t462 192q116 0 208.5 -20t178.5 -52
l-52 -148q-41 15 -81 27t-80.5 20t-83.5 12t-90 4q-111 0 -191 -39.5t-132 -115t-77 -184t-25 -246.5q0 -142 25 -251t77 -183.5t132 -112.5t191 -38q102 0 194 17t183 45z" />
    <glyph glyph-name="cacute" unicode="&#x107;" horiz-adv-x="973" 
d="M482 1620q38 27 65.5 37t55.5 10q49 0 79 -19.5t43.5 -50t11.5 -69.5t-18 -78q-11 -26 -29 -61t-38 -72.5t-40.5 -73.5t-35.5 -62h-122l79 262zM895 37q-78 -27 -166.5 -44t-167.5 -17q-120 0 -208 35t-145.5 102t-85.5 164.5t-28 222.5q0 136 34.5 241t100 176.5
t160 108.5t214.5 37q61 0 124 -12.5t128 -31.5l-43 -140q-52 17 -96.5 27t-93.5 10q-170 0 -262 -98.5t-92 -297.5q0 -93 13.5 -166.5t48 -125t94 -78.5t151.5 -27q60 0 129.5 15.5t147.5 38.5z" />
    <glyph glyph-name="Cdotaccent" unicode="&#x10a;" horiz-adv-x="1239" 
d="M730 1815q25 0 47 -9.5t38.5 -25.5t26 -37.5t9.5 -46.5q0 -27 -10 -49.5t-26.5 -38t-38.5 -24.5t-46 -9t-46 9.5t-38.5 26t-26.5 38.5t-10 47t10.5 46.5t27.5 37.5t38.5 25.5t44.5 9.5zM1157 41q-93 -29 -196.5 -47t-227.5 -18q-306 0 -462 183t-156 539q0 378 156 570
t462 192q116 0 208.5 -20t178.5 -52l-52 -148q-41 15 -81 27t-80.5 20t-83.5 12t-90 4q-111 0 -191 -39.5t-132 -115t-77 -184t-25 -246.5q0 -142 25 -251t77 -183.5t132 -112.5t191 -38q102 0 194 17t183 45z" />
    <glyph glyph-name="cdotaccent" unicode="&#x10b;" horiz-adv-x="973" 
d="M517 1418q25 0 47 -9.5t38.5 -25.5t26 -37.5t9.5 -46.5q0 -27 -10 -49.5t-26.5 -38t-38.5 -24.5t-46 -9t-46 9.5t-38.5 26t-26.5 38.5t-10 47t10.5 46.5t27.5 37.5t38.5 25.5t44.5 9.5zM895 37q-78 -27 -166.5 -44t-167.5 -17q-120 0 -208 35t-145.5 102t-85.5 164.5
t-28 222.5q0 136 34.5 241t100 176.5t160 108.5t214.5 37q61 0 124 -12.5t128 -31.5l-43 -140q-52 17 -96.5 27t-93.5 10q-170 0 -262 -98.5t-92 -297.5q0 -93 13.5 -166.5t48 -125t94 -78.5t151.5 -27q60 0 129.5 15.5t147.5 38.5z" />
    <glyph glyph-name="Ccaron" unicode="&#x10c;" horiz-adv-x="1239" 
d="M972 1919l71 -87l-313 -254l-317 254l71 87l246 -141zM1157 41q-93 -29 -196.5 -47t-227.5 -18q-306 0 -462 183t-156 539q0 378 156 570t462 192q116 0 208.5 -20t178.5 -52l-52 -148q-41 15 -81 27t-80.5 20t-83.5 12t-90 4q-111 0 -191 -39.5t-132 -115t-77 -184
t-25 -246.5q0 -142 25 -251t77 -183.5t132 -112.5t191 -38q102 0 194 17t183 45z" />
    <glyph glyph-name="ccaron" unicode="&#x10d;" horiz-adv-x="973" 
d="M759 1522l71 -87l-313 -254l-317 254l71 87l246 -141zM895 37q-78 -27 -166.5 -44t-167.5 -17q-120 0 -208 35t-145.5 102t-85.5 164.5t-28 222.5q0 136 34.5 241t100 176.5t160 108.5t214.5 37q61 0 124 -12.5t128 -31.5l-43 -140q-52 17 -96.5 27t-93.5 10
q-170 0 -262 -98.5t-92 -297.5q0 -93 13.5 -166.5t48 -125t94 -78.5t151.5 -27q60 0 129.5 15.5t147.5 38.5z" />
    <glyph glyph-name="Dcaron" unicode="&#x10e;" horiz-adv-x="1376" 
d="M848 1902l71 -87l-313 -254l-317 254l71 87l246 -141zM182 0v1438h304q123 0 228.5 -12.5t193.5 -43.5t154.5 -82.5t114.5 -131.5q47 -80 71 -190t24 -259t-24 -259t-71 -190q-48 -80 -114.5 -131.5t-154.5 -82.5t-193.5 -43.5t-228.5 -12.5h-304zM517 154
q153 0 259.5 30.5t174.5 99.5q67 69 97.5 175.5t30.5 259.5t-30.5 259.5t-97.5 175.5q-68 69 -174.5 99.5t-259.5 30.5h-147v-1130h147z" />
    <glyph glyph-name="dcaron" unicode="&#x10f;" horiz-adv-x="1123" 
d="M1194 1223l-51 177q65 47 121 47q62 0 97.5 -33t36.5 -81.5t-18 -102.5q-28 -67 -143 -269h-122zM776 1440h172v-1047q0 -176 5 -231q5 -68 23 -146l-166 -37q-17 56 -25 113q-10 70 -11 108h-15q-52 -108 -115 -159q-76 -65 -188 -65q-98 0 -169 42.5t-110.5 118.5
t-58 167t-18.5 201q0 124 25.5 223t78.5 175.5t142 118t209 41.5q94 0 221 -25v402zM776 421v465q-113 30 -208 30q-81 0 -139.5 -29.5t-91.5 -83t-48 -119.5t-15 -148q0 -56 2.5 -98.5t9 -92t20.5 -84.5t35 -65t54.5 -45.5t77.5 -15.5q106 0 184 85q56 62 119 201z" />
    <glyph glyph-name="Dcroat" unicode="&#x110;" horiz-adv-x="1376" 
d="M808 1719v-121h-513v121h513zM182 0v1438h304q123 0 228.5 -12.5t193.5 -43.5t154.5 -82.5t114.5 -131.5q47 -80 71 -190t24 -259t-24 -259t-71 -190q-48 -80 -114.5 -131.5t-154.5 -82.5t-193.5 -43.5t-228.5 -12.5h-304zM517 154q153 0 259.5 30.5t174.5 99.5
q67 69 97.5 175.5t30.5 259.5t-30.5 259.5t-97.5 175.5q-68 69 -174.5 99.5t-259.5 30.5h-147v-1130h147z" />
    <glyph glyph-name="dcroat" unicode="&#x111;" horiz-adv-x="1123" 
d="M1109 1173h-161v-780q0 -176 5 -231q5 -68 23 -146l-166 -37q-17 56 -25 113q-10 70 -11 108h-15q-52 -108 -115 -159q-76 -65 -188 -65q-98 0 -169 42.5t-110.5 118.5t-58 167t-18.5 201q0 124 25.5 223t78.5 175.5t142 118t209 41.5q94 0 221 -25v135h-180v121h180v146
h172v-146h161v-121zM776 421v465q-113 30 -208 30q-81 0 -139.5 -29.5t-91.5 -83t-48 -119.5t-15 -148q0 -56 2.5 -98.5t9 -92t20.5 -84.5t35 -65t54.5 -45.5t77.5 -15.5q106 0 184 85q56 62 119 201z" />
    <glyph glyph-name="Emacron" unicode="&#x112;" horiz-adv-x="1131" 
d="M325 1719h513v-121h-513v121zM182 1438h798v-154h-610v-397h432v-154h-432v-579h633v-154h-821v1438z" />
    <glyph glyph-name="emacron" unicode="&#x113;" horiz-adv-x="1102" 
d="M811 1363v-121h-513v121h513zM946 58q-111 -44 -208.5 -63t-174.5 -19q-118 0 -206 37.5t-146.5 105.5t-88 162.5t-29.5 208.5q0 70 10 140t32 133.5t57.5 118.5t86.5 95t119 63t155 23q223 0 336 -139.5t113 -399.5v-55h-732q0 -84 18 -148.5t55.5 -109t95 -67.5
t136.5 -23q44 0 87.5 6.5t84.5 17t78.5 23.5t70.5 25zM829 607q-8 162 -77.5 236.5t-198.5 74.5t-196.5 -74.5t-81.5 -236.5h554z" />
    <glyph glyph-name="Edotaccent" unicode="&#x116;" horiz-adv-x="1131" 
d="M594 1798q49 0 86 -35q35 -33 35 -84q0 -53 -35 -86q-37 -35 -86 -35q-47 0 -84 35t-37 86q0 49 37 84t84 35zM182 1438h798v-154h-610v-397h432v-154h-432v-579h633v-154h-821v1438z" />
    <glyph glyph-name="edotaccent" unicode="&#x117;" horiz-adv-x="1102" 
d="M554 1418q25 0 47 -9.5t38.5 -25.5t26 -37.5t9.5 -46.5q0 -27 -10 -49.5t-26.5 -38t-38.5 -24.5t-46 -9t-46 9.5t-38.5 26t-26.5 38.5t-10 47t10.5 46.5t27.5 37.5t38.5 25.5t44.5 9.5zM946 58q-111 -44 -208.5 -63t-174.5 -19q-118 0 -206 37.5t-146.5 105.5t-88 162.5
t-29.5 208.5q0 70 10 140t32 133.5t57.5 118.5t86.5 95t119 63t155 23q223 0 336 -139.5t113 -399.5v-55h-732q0 -84 18 -148.5t55.5 -109t95 -67.5t136.5 -23q44 0 87.5 6.5t84.5 17t78.5 23.5t70.5 25zM829 607q-8 162 -77.5 236.5t-198.5 74.5t-196.5 -74.5t-81.5 -236.5
h554z" />
    <glyph glyph-name="Eogonek" unicode="&#x118;" horiz-adv-x="1131" 
d="M1003 0h-164q-58 -70 -83 -113.5t-25 -90.5q0 -92 71 -92q37 0 102 25l-5 -90q-71 -47 -149 -47q-65 0 -106 44.5t-41 121.5q0 36 7.5 65.5t29 62t37.5 52t55 62.5h-550v1438h798v-154h-610v-397h432v-154h-432v-579h633v-154z" />
    <glyph glyph-name="eogonek" unicode="&#x119;" horiz-adv-x="1102" 
d="M1002 469h-732q0 -84 18 -148.5t55.5 -109t95 -67.5t136.5 -23q44 0 87.5 6.5t84.5 17t78.5 23.5t70.5 25l50 -135q-48 -19 -94 -33t-89 -24q-26 -31 -46 -57.5t-34 -50.5t-21.5 -47.5t-7.5 -49.5q0 -51 19 -71.5t52 -20.5q21 0 47 7t55 18l-5 -90q-33 -22 -67 -34.5
t-82 -12.5q-64 0 -105.5 43.5t-41.5 122.5q0 34 8 62.5t22 54t34.5 51t46.5 54.5q-20 -2 -38.5 -3t-35.5 -1q-118 0 -206 37.5t-146.5 105.5t-88 162.5t-29.5 208.5q0 70 10 140t32 133.5t57.5 118.5t86.5 95t119 63t155 23q223 0 336 -139.5t113 -399.5v-55zM829 607
q-8 162 -77.5 236.5t-198.5 74.5t-196.5 -74.5t-81.5 -236.5h554z" />
    <glyph glyph-name="Ecaron" unicode="&#x11a;" horiz-adv-x="1131" 
d="M586 1761l242 141l71 -87l-313 -254l-317 254l71 87zM182 1438h798v-154h-610v-397h432v-154h-432v-579h633v-154h-821v1438z" />
    <glyph glyph-name="ecaron" unicode="&#x11b;" horiz-adv-x="1102" 
d="M796 1522l71 -87l-313 -254l-317 254l71 87l246 -141zM946 58q-111 -44 -208.5 -63t-174.5 -19q-118 0 -206 37.5t-146.5 105.5t-88 162.5t-29.5 208.5q0 70 10 140t32 133.5t57.5 118.5t86.5 95t119 63t155 23q223 0 336 -139.5t113 -399.5v-55h-732q0 -84 18 -148.5
t55.5 -109t95 -67.5t136.5 -23q44 0 87.5 6.5t84.5 17t78.5 23.5t70.5 25zM829 607q-8 162 -77.5 236.5t-198.5 74.5t-196.5 -74.5t-81.5 -236.5h554z" />
    <glyph glyph-name="Gbreve" unicode="&#x11e;" horiz-adv-x="1399" 
d="M1052 1904q-7 -66 -29 -121t-58 -94.5t-85 -61.5t-109 -22q-61 0 -110 22.5t-84.5 62.5t-57.5 94.5t-29 119.5h76q32 -83 81.5 -118t123.5 -35t123.5 35t81.5 118h76zM1257 77q-119 -49 -246.5 -75t-247.5 -26q-156 0 -276.5 44t-202.5 134t-124.5 226.5t-42.5 321.5
q0 201 43.5 345t126.5 235.5t204.5 134.5t277.5 43q97 0 204 -19.5t220 -55.5l-53 -150q-101 34 -189.5 51t-178.5 17q-116 0 -203 -34t-144.5 -105t-86 -181t-28.5 -262q0 -150 26.5 -261t81.5 -183.5t140 -108t201 -35.5q82 0 165 17t152 40v398h-241v151h422v-662z" />
    <glyph glyph-name="gbreve" unicode="&#x11f;" horiz-adv-x="1118" 
d="M786 1507q-7 -66 -29 -121t-58 -94.5t-85 -61.5t-109 -22q-61 0 -110 22.5t-84.5 62.5t-57.5 94.5t-29 119.5h76q32 -83 81.5 -118t123.5 -35t123.5 35t81.5 118h76zM762 1040q43 0 75.5 1t62.5 4.5t60.5 10.5t71.5 20q13 -38 25.5 -72t25.5 -70q-32 -12 -59 -19
t-53.5 -11.5t-53 -6t-56.5 -2.5q28 -45 43 -101t15 -122q0 -96 -29 -167.5t-83 -121.5t-129.5 -75.5t-169.5 -25.5q-48 0 -91 5.5t-82 19.5q-9 -24 -15.5 -49t-6 -47.5t8.5 -41t28 -29.5q10 -6 21 -9.5t26.5 -6t37.5 -4t53 -1.5q30 -1 70.5 -1h94.5q156 0 236 -65.5
t80 -203.5q0 -56 -18 -99.5t-49.5 -75.5t-74.5 -53.5t-93 -35t-104.5 -19t-109.5 -5.5t-110.5 6t-108.5 15t-99.5 20.5t-82.5 22.5q14 34 31.5 68t37.5 64q63 -18 150 -35t193 -17q48 0 94.5 6t84 22.5t60.5 44t23 71.5q0 46 -16.5 71t-44.5 37t-66 14t-80 2h-131
q-59 0 -111 9t-91 30.5t-61.5 56.5t-22.5 86q0 49 18 101.5t47 106.5q-66 48 -101.5 127t-35.5 182q0 94 29.5 166.5t83.5 123.5t129 76t169 25q88 0 162 -23h92zM508 925q-63 0 -108 -19t-73.5 -52.5t-42 -80t-13.5 -101.5q0 -56 13.5 -102t42.5 -79.5t73.5 -52
t107.5 -18.5t108 18.5t73.5 52t42 80t13.5 101.5t-13.5 101.5t-42 80t-73.5 52.5t-108 19z" />
    <glyph glyph-name="Gdotaccent" unicode="&#x120;" horiz-adv-x="1399" 
d="M771 1815q25 0 47 -9.5t38.5 -25.5t26 -37.5t9.5 -46.5q0 -27 -10 -49.5t-26.5 -38t-38.5 -24.5t-46 -9t-46 9.5t-38.5 26t-26.5 38.5t-10 47t10.5 46.5t27.5 37.5t38.5 25.5t44.5 9.5zM1257 77q-119 -49 -246.5 -75t-247.5 -26q-156 0 -276.5 44t-202.5 134
t-124.5 226.5t-42.5 321.5q0 201 43.5 345t126.5 235.5t204.5 134.5t277.5 43q97 0 204 -19.5t220 -55.5l-53 -150q-101 34 -189.5 51t-178.5 17q-116 0 -203 -34t-144.5 -105t-86 -181t-28.5 -262q0 -150 26.5 -261t81.5 -183.5t140 -108t201 -35.5q82 0 165 17t152 40v398
h-241v151h422v-662z" />
    <glyph glyph-name="gdotaccent" unicode="&#x121;" horiz-adv-x="1118" 
d="M505 1418q25 0 47 -9.5t38.5 -25.5t26 -37.5t9.5 -46.5q0 -27 -10 -49.5t-26.5 -38t-38.5 -24.5t-46 -9t-46 9.5t-38.5 26t-26.5 38.5t-10 47t10.5 46.5t27.5 37.5t38.5 25.5t44.5 9.5zM762 1040q43 0 75.5 1t62.5 4.5t60.5 10.5t71.5 20q13 -38 25.5 -72t25.5 -70
q-32 -12 -59 -19t-53.5 -11.5t-53 -6t-56.5 -2.5q28 -45 43 -101t15 -122q0 -96 -29 -167.5t-83 -121.5t-129.5 -75.5t-169.5 -25.5q-48 0 -91 5.5t-82 19.5q-9 -24 -15.5 -49t-6 -47.5t8.5 -41t28 -29.5q10 -6 21 -9.5t26.5 -6t37.5 -4t53 -1.5q30 -1 70.5 -1h94.5
q156 0 236 -65.5t80 -203.5q0 -56 -18 -99.5t-49.5 -75.5t-74.5 -53.5t-93 -35t-104.5 -19t-109.5 -5.5t-110.5 6t-108.5 15t-99.5 20.5t-82.5 22.5q14 34 31.5 68t37.5 64q63 -18 150 -35t193 -17q48 0 94.5 6t84 22.5t60.5 44t23 71.5q0 46 -16.5 71t-44.5 37t-66 14
t-80 2h-131q-59 0 -111 9t-91 30.5t-61.5 56.5t-22.5 86q0 49 18 101.5t47 106.5q-66 48 -101.5 127t-35.5 182q0 94 29.5 166.5t83.5 123.5t129 76t169 25q88 0 162 -23h92zM508 925q-63 0 -108 -19t-73.5 -52.5t-42 -80t-13.5 -101.5q0 -56 13.5 -102t42.5 -79.5t73.5 -52
t107.5 -18.5t108 18.5t73.5 52t42 80t13.5 101.5t-13.5 101.5t-42 80t-73.5 52.5t-108 19z" />
    <glyph glyph-name="Gcommaaccent" unicode="&#x122;" horiz-adv-x="1399" 
d="M1257 77q-119 -49 -246.5 -75t-247.5 -26q-156 0 -276.5 44t-202.5 134t-124.5 226.5t-42.5 321.5q0 201 43.5 345t126.5 235.5t204.5 134.5t277.5 43q97 0 204 -19.5t220 -55.5l-53 -150q-101 34 -189.5 51t-178.5 17q-116 0 -203 -34t-144.5 -105t-86 -181t-28.5 -262
q0 -150 26.5 -261t81.5 -183.5t140 -108t201 -35.5q82 0 165 17t152 40v398h-241v151h422v-662zM641 -174q38 27 65.5 37t55.5 10q49 0 79 -19.5t43.5 -50t11.5 -69.5t-18 -78q-11 -26 -29 -61t-38 -72.5t-40.5 -73.5t-35.5 -62h-122l79 262z" />
    <glyph glyph-name="gcommaaccent" unicode="&#x123;" horiz-adv-x="1097" 
d="M679 1697l-79 -262l51 -177q-38 -27 -65.5 -37t-55.5 -10q-49 0 -79 19.5t-43.5 50t-11.5 69.5t18 78q10 25 28.5 60.5t38.5 73t40.5 73.5t35.5 62h122zM762 1040q43 0 75.5 1t62.5 4.5t60.5 10.5t71.5 20q13 -38 25.5 -72t25.5 -70q-32 -12 -59 -19t-53.5 -11.5t-53 -6
t-56.5 -2.5q28 -45 43 -101t15 -122q0 -96 -29 -167.5t-83 -121.5t-129.5 -75.5t-169.5 -25.5q-48 0 -91 5.5t-82 19.5q-9 -24 -15.5 -49t-6 -47.5t8.5 -41t28 -29.5q10 -6 21 -9.5t26.5 -6t37.5 -4t53 -1.5q30 -1 70.5 -1h94.5q156 0 236 -65.5t80 -203.5q0 -56 -18 -99.5
t-49.5 -75.5t-74.5 -53.5t-93 -35t-104.5 -19t-109.5 -5.5t-110.5 6t-108.5 15t-99.5 20.5t-82.5 22.5q14 34 31.5 68t37.5 64q63 -18 150 -35t193 -17q48 0 94.5 6t84 22.5t60.5 44t23 71.5q0 46 -16.5 71t-44.5 37t-66 14t-80 2h-131q-59 0 -111 9t-91 30.5t-61.5 56.5
t-22.5 86q0 49 18 101.5t47 106.5q-66 48 -101.5 127t-35.5 182q0 94 29.5 166.5t83.5 123.5t129 76t169 25q88 0 162 -23h92zM508 925q-63 0 -108 -19t-73.5 -52.5t-42 -80t-13.5 -101.5q0 -56 13.5 -102t42.5 -79.5t73.5 -52t107.5 -18.5t108 18.5t73.5 52t42 80
t13.5 101.5t-13.5 101.5t-42 80t-73.5 52.5t-108 19z" />
    <glyph glyph-name="Hbar" unicode="&#x126;" horiz-adv-x="1718" 
d="M1254 1438h188v-240h176v-121h-176v-1077h-188v711h-773v-711h-188v1077h-193v121h193v240h188v-240h773v240zM1254 867v210h-773v-210h773z" />
    <glyph glyph-name="hbar" unicode="&#x127;" horiz-adv-x="1159" 
d="M347 1098v-283q67 114 152 178q97 72 193 72q144 0 224 -72q69 -62 95 -187q20 -95 20 -256v-550h-180v596q0 149 -29 213q-43 95 -171 95q-91 0 -179 -90q-56 -57 -125 -174v-640h-171v1098h-175v120h175v222h171v-222h181v-120h-181z" />
    <glyph glyph-name="Imacron" unicode="&#x12a;" horiz-adv-x="596" 
d="M40 1719h513v-121h-513v121zM204 1438h188v-1438h-188v1438z" />
    <glyph glyph-name="imacron" unicode="&#x12b;" horiz-adv-x="534" 
d="M10 1332h513v-121h-513v121zM181 1040h172v-1040h-172v1040z" />
    <glyph glyph-name="Iogonek" unicode="&#x12e;" horiz-adv-x="596" 
d="M392 0h-79q-58 -70 -83 -113.5t-25 -90.5q0 -92 71 -92q37 0 102 25l-5 -90q-71 -47 -149 -47q-65 0 -106 44.5t-41 121.5q0 36 7.5 65.5t29 62t37.5 52t55 62.5h-2v1438h188v-1438z" />
    <glyph glyph-name="iogonek" unicode="&#x12f;" horiz-adv-x="534" 
d="M183 1223q-37 35 -37 86q0 49 37 84t84 35q49 0 86 -35q35 -33 35 -84q0 -53 -35 -86q-37 -35 -86 -35q-47 0 -84 35zM353 0h-59q-58 -70 -83 -113.5t-25 -90.5q0 -92 71 -92q37 0 102 25l-5 -90q-71 -47 -149 -47q-65 0 -106 44.5t-41 121.5q0 36 7.5 65.5t29 62
t37.5 52t55 62.5h-6v1040h172v-1040z" />
    <glyph glyph-name="Idotaccent" unicode="&#x130;" horiz-adv-x="596" 
d="M297 1808q49 0 86 -35q35 -33 35 -84q0 -53 -35 -86q-37 -35 -86 -35q-47 0 -84 35t-37 86q0 49 37 84t84 35zM204 1438h188v-1438h-188v1438z" />
    <glyph glyph-name="dotlessi" unicode="&#x131;" horiz-adv-x="534" 
d="M181 1040h172v-1040h-172v1040z" />
    <glyph glyph-name="IJ" unicode="&#x132;" horiz-adv-x="1133" 
d="M180 1438h188v-1438h-188v1438zM953 354q0 -117 -13 -199t-42.5 -146t-78 -117.5t-118.5 -113.5q-29 25 -60.5 53t-62.5 60q54 54 89.5 94.5t57 86.5t31 106t9.5 152v1108h188v-1084z" />
    <glyph glyph-name="ij" unicode="&#x133;" horiz-adv-x="993" 
d="M246 1443q24 0 44.5 -9t35.5 -24t24 -36t9 -45q0 -23 -9 -44t-24.5 -37t-36 -25t-43.5 -9q-24 0 -45 9t-37 24.5t-25 36.5t-9 45t9 45t25 36t37 24t45 9zM750 1443q24 0 44.5 -9t35.5 -24t24 -36t9 -45q0 -23 -9 -44t-24.5 -37t-36 -25t-43.5 -9q-24 0 -45 9t-37 24.5
t-25 36.5t-9 45t9 45t25 36t37 24t45 9zM158 1040h172v-1040h-172v1040zM835 115q0 -109 -11.5 -185t-39 -134.5t-72 -108t-108.5 -104.5q-28 23 -57 48.5t-58 54.5q49 51 82.5 89t53.5 80.5t29 98t9 139.5v947h172v-925z" />
    <glyph glyph-name="Kcommaaccent" unicode="&#x136;" horiz-adv-x="1313" 
d="M1014 1460l127 -102l-552 -654l600 -704h-226l-591 694v-694h-188v1438h188v-740zM543 -174q38 27 65.5 37t55.5 10q49 0 79 -19.5t43.5 -50t11.5 -69.5t-18 -78q-11 -26 -29 -61t-38 -72.5t-40.5 -73.5t-35.5 -62h-122l79 262z" />
    <glyph glyph-name="kcommaaccent" unicode="&#x137;" horiz-adv-x="1038" 
d="M169 1440h172v-866l468 489l113 -110l-405 -417l511 -536h-214l-473 500v-500h-172v1440zM480 -360l-51 177q65 47 121 47q62 0 97.5 -33t36.5 -81.5t-18 -102.5q-28 -67 -143 -269h-122z" />
    <glyph glyph-name="Lacute" unicode="&#x139;" horiz-adv-x="1042" 
d="M332 1833l-51 177q65 47 121 47q62 0 97.5 -33t36.5 -81.5t-18 -102.5q-28 -67 -143 -269h-122zM195 1438h188v-1284h589v-154h-777v1438z" />
    <glyph glyph-name="lacute" unicode="&#x13a;" horiz-adv-x="475" 
d="M224 2020q38 27 65.5 37t55.5 10q49 0 79 -19.5t43.5 -50t11.5 -69.5t-18 -78q-11 -26 -29 -61t-38 -72.5t-40.5 -73.5t-35.5 -62h-122l79 262zM312 404q0 -82 2 -137.5t5 -97.5t9.5 -76t16.5 -75q-42 -11 -84 -20.5t-84 -16.5q-20 65 -28.5 119t-8.5 106v1232h172v-1034
z" />
    <glyph glyph-name="Lcommaaccent" unicode="&#x13b;" horiz-adv-x="1042" 
d="M195 1438h188v-1284h589v-154h-777v1438zM499 -360l-51 177q65 47 121 47q62 0 97.5 -33t36.5 -81.5t-18 -102.5q-28 -67 -143 -269h-122z" />
    <glyph glyph-name="lcommaaccent" unicode="&#x13c;" horiz-adv-x="475" 
d="M312 404q0 -82 2 -137.5t5 -97.5t9.5 -76t16.5 -75q-42 -11 -84 -20.5t-84 -16.5q-20 65 -28.5 119t-8.5 106v1232h172v-1034zM128 -174q38 27 65.5 37t55.5 10q49 0 79 -19.5t43.5 -50t11.5 -69.5t-18 -78q-11 -26 -29 -61t-38 -72.5t-40.5 -73.5t-35.5 -62h-122l79 262
z" />
    <glyph glyph-name="Lcaron" unicode="&#x13d;" horiz-adv-x="1042" 
d="M805 1236l-51 177q65 47 121 47q62 0 97.5 -33t36.5 -81.5t-18 -102.5q-28 -67 -143 -269h-122zM195 1438h188v-1284h589v-154h-777v1438z" />
    <glyph glyph-name="lcaron" unicode="&#x13e;" horiz-adv-x="475" 
d="M499 1561q42 30 72.5 41t61.5 11q55 0 88.5 -21t48 -54.5t11.5 -76.5t-21 -87q-12 -28 -31.5 -67t-42 -80t-45 -80.5t-38.5 -68.5h-134l87 289zM312 404q0 -82 2 -137.5t5 -97.5t9.5 -76t16.5 -75q-42 -11 -84 -20.5t-84 -16.5q-20 65 -28.5 119t-8.5 106v1232h172v-1034
z" />
    <glyph glyph-name="Ldot" unicode="&#x13f;" horiz-adv-x="1032" 
d="M927 0h-777v1438h188v-1284h589v-154zM685 923q25 0 47 -9.5t38.5 -25.5t26 -37.5t9.5 -46.5q0 -27 -10 -49.5t-26.5 -38t-38.5 -24.5t-46 -9t-46 9.5t-38.5 26t-26.5 38.5t-10 47t10.5 46.5t27.5 37.5t38.5 25.5t44.5 9.5z" />
    <glyph glyph-name="ldot" unicode="&#x140;" horiz-adv-x="692" 
d="M312 404q0 -82 2 -137.5t5 -97.5t9.5 -76t16.5 -75q-42 -11 -84 -20.5t-84 -16.5q-20 65 -28.5 119t-8.5 106v1232h172v-1034zM551 870q25 0 47 -9.5t38.5 -25.5t26 -37.5t9.5 -46.5q0 -27 -10 -49.5t-26.5 -38t-38.5 -24.5t-46 -9t-46 9.5t-38.5 26t-26.5 38.5t-10 47
t10.5 46.5t27.5 37.5t38.5 25.5t44.5 9.5z" />
    <glyph glyph-name="Lslash" unicode="&#x141;" horiz-adv-x="1076" 
d="M394 156h589v-156h-777v639l-206 -111v151l206 111v648h188v-548l344 184v-151l-344 -184v-583z" />
    <glyph glyph-name="lslash" unicode="&#x142;" horiz-adv-x="455" 
d="M478 972v-151l-176 -99v-318q0 -82 2 -137.5t5 -97.5t9.5 -76t16.5 -75q-42 -11 -84 -20.5t-84 -16.5q-20 65 -28.5 119t-8.5 106v419l-176 -99v151l176 99v662h172v-565z" />
    <glyph glyph-name="Nacute" unicode="&#x143;" horiz-adv-x="1529" 
d="M792 1833l-51 177q65 47 121 47q62 0 97.5 -33t36.5 -81.5t-18 -102.5q-28 -67 -143 -269h-122zM1351 -10h-220l-765 1202v-1192h-188v1438h220l765 -1202v1202h188v-1448z" />
    <glyph glyph-name="nacute" unicode="&#x144;" horiz-adv-x="1147" 
d="M601 1473l-51 177q65 47 121 47q62 0 97.5 -33t36.5 -81.5t-18 -102.5q-28 -67 -143 -269h-122zM135 1022l166 37q19 -60 27 -116q4 -27 10 -107h21q55 101 136 161q89 66 188 66q149 0 227 -72q67 -61 93 -187q17 -86 17 -256v-548h-172v596q0 149 -29 213
q-43 95 -173 95q-92 0 -180 -88q-59 -59 -126 -173v-643h-172v640q0 135 -7 233q-4 61 -26 149z" />
    <glyph glyph-name="Ncommaaccent" unicode="&#x145;" horiz-adv-x="1529" 
d="M1351 -10h-220l-765 1202v-1192h-188v1438h220l765 -1202v1202h188v-1448zM668 -360l-51 177q65 47 121 47q62 0 97.5 -33t36.5 -81.5t-18 -102.5q-28 -67 -143 -269h-122z" />
    <glyph glyph-name="ncommaaccent" unicode="&#x146;" horiz-adv-x="1147" 
d="M135 1022l166 37q19 -60 27 -116q4 -27 10 -107h21q55 101 136 161q89 66 188 66q149 0 227 -72q67 -61 93 -187q17 -86 17 -256v-548h-172v596q0 149 -29 213q-43 95 -173 95q-92 0 -180 -88q-59 -59 -126 -173v-643h-172v640q0 135 -7 233q-4 61 -26 149zM507 -360
l-51 177q65 47 121 47q62 0 97.5 -33t36.5 -81.5t-18 -102.5q-28 -67 -143 -269h-122z" />
    <glyph glyph-name="Ncaron" unicode="&#x147;" horiz-adv-x="1529" 
d="M768 1761l242 141l71 -87l-313 -254l-317 254l71 87zM1351 -10h-220l-765 1202v-1192h-188v1438h220l765 -1202v1202h188v-1448z" />
    <glyph glyph-name="ncaron" unicode="&#x148;" horiz-adv-x="1147" 
d="M567 1391l242 141l71 -87l-313 -254l-317 254l71 87zM135 1022l166 37q19 -60 27 -116q4 -27 10 -107h21q55 101 136 161q89 66 188 66q149 0 227 -72q67 -61 93 -187q17 -86 17 -256v-548h-172v596q0 149 -29 213q-43 95 -173 95q-92 0 -180 -88q-59 -59 -126 -173v-643
h-172v640q0 135 -7 233q-4 61 -26 149z" />
    <glyph glyph-name="Eng" unicode="&#x14a;" horiz-adv-x="1521" 
d="M1164 1438h187v-1449q0 -143 -54 -261q-73 -158 -285 -255l-84 108q4 4 29.5 25.5t31 26t25 22t27 25.5t21 23t22.5 27.5t17 26.5q51 85 59 234l-793 1204v-1195h-187v1438h219l765 -1155v1155z" />
    <glyph glyph-name="eng" unicode="&#x14b;" horiz-adv-x="1190" 
d="M338 836h21q55 101 136 161q89 66 188 66q149 0 227 -72q67 -61 93 -187q17 -86 17 -256v-404q0 -183 -37 -278q-35 -91 -147 -215l-57 -63l-115 95q82 99 109 145q1 2 23 43q52 108 52 260v465q0 149 -29 213q-43 95 -173 95q-92 0 -180 -88q-59 -59 -126 -173v-643
h-172v640q0 135 -7 233q-4 61 -26 149l166 37q19 -60 27 -116q4 -27 10 -107z" />
    <glyph glyph-name="Omacron" unicode="&#x14c;" horiz-adv-x="1482" 
d="M484 1719h513v-121h-513v121zM1372 719q0 -361 -163 -552t-468 -191q-302 0 -466.5 190.5t-164.5 552.5q0 361 165 551t466 190q305 0 468 -191.5t163 -549.5zM1179 719q0 278 -109.5 431t-329.5 153q-221 0 -329 -154.5t-108 -429.5q0 -135 25.5 -241.5t78 -184
t137 -119t196.5 -41.5q220 0 329.5 153.5t109.5 432.5z" />
    <glyph glyph-name="omacron" unicode="&#x14d;" horiz-adv-x="1113" 
d="M812 1332v-121h-513v121h513zM555 1063q49 0 102 -7.5t104 -28.5q51 -22 96.5 -59.5t80.5 -97.5q35 -61 55 -146.5t20 -203.5t-20 -203.5t-55 -145.5q-35 -61 -80.5 -99t-96.5 -59q-51 -22 -104 -29.5t-102 -7.5q-48 0 -100.5 7.5t-103.5 29.5q-51 21 -96 59t-80 99
q-35 60 -55 145.5t-20 203.5t20 203.5t55 146.5q35 60 80 97.5t96 59.5q51 21 103 28.5t101 7.5zM555 922q-57 0 -107.5 -18t-88.5 -63q-39 -46 -62 -123t-23 -198q0 -120 23 -197.5t62 -122.5q38 -46 88.5 -63.5t107.5 -17.5q58 0 109.5 17.5t90.5 63.5q39 45 61.5 122.5
t22.5 197.5q0 121 -22.5 198t-61.5 123q-39 45 -90.5 63t-109.5 18z" />
    <glyph glyph-name="Ohungarumlaut" unicode="&#x150;" horiz-adv-x="1482" 
d="M574 1833l-51 177q65 47 121 47q62 0 97.5 -33t36.5 -81.5t-18 -102.5q-28 -67 -143 -269h-122zM938 1833l-51 177q65 47 121 47q62 0 97.5 -33t36.5 -81.5t-18 -102.5q-28 -67 -143 -269h-122zM1372 719q0 -361 -163 -552t-468 -191q-302 0 -466.5 190.5t-164.5 552.5
q0 361 165 551t466 190q305 0 468 -191.5t163 -549.5zM1179 719q0 278 -109.5 431t-329.5 153q-221 0 -329 -154.5t-108 -429.5q0 -135 25.5 -241.5t78 -184t137 -119t196.5 -41.5q220 0 329.5 153.5t109.5 432.5z" />
    <glyph glyph-name="ohungarumlaut" unicode="&#x151;" horiz-adv-x="1113" 
d="M329 1650q38 27 65.5 37t55.5 10q49 0 79 -19.5t43.5 -50t11.5 -69.5t-18 -78q-11 -26 -29 -61t-38 -72.5t-40.5 -73.5t-35.5 -62h-122l79 262zM693 1650q38 27 65.5 37t55.5 10q49 0 79 -19.5t43.5 -50t11.5 -69.5t-18 -78q-11 -26 -29 -61t-38 -72.5t-40.5 -73.5
t-35.5 -62h-122l79 262zM555 1063q49 0 102 -7.5t104 -28.5q51 -22 96.5 -59.5t80.5 -97.5q35 -61 55 -146.5t20 -203.5t-20 -203.5t-55 -145.5q-35 -61 -80.5 -99t-96.5 -59q-51 -22 -104 -29.5t-102 -7.5q-48 0 -100.5 7.5t-103.5 29.5q-51 21 -96 59t-80 99
q-35 60 -55 145.5t-20 203.5t20 203.5t55 146.5q35 60 80 97.5t96 59.5q51 21 103 28.5t101 7.5zM555 922q-57 0 -107.5 -18t-88.5 -63q-39 -46 -62 -123t-23 -198q0 -120 23 -197.5t62 -122.5q38 -46 88.5 -63.5t107.5 -17.5q58 0 109.5 17.5t90.5 63.5q39 45 61.5 122.5
t22.5 197.5q0 121 -22.5 198t-61.5 123q-39 45 -90.5 63t-109.5 18z" />
    <glyph glyph-name="OE" unicode="&#x152;" horiz-adv-x="1982" 
d="M1034 1385v53h798v-154h-610v-397h432v-156h-432v-577h632v-154h-820v53q-114 -76 -283 -76q-157 0 -282 56q-158 71 -244 221q-105 182 -105 470q0 286 105 465q88 150 244 219q125 53 282 53q169 0 283 -76zM1034 235v970q-109 99 -283 99q-195 0 -307 -124
q-132 -147 -132 -456q0 -313 132 -463q113 -128 307 -128q175 0 283 102z" />
    <glyph glyph-name="oe" unicode="&#x153;" horiz-adv-x="1849" 
d="M1748 469h-736q2 -167 76.5 -257.5t232.5 -90.5q53 0 101 9t108 25q27 8 55 17.5t57 20.5l50 -135q-81 -32 -161.5 -52.5t-148.5 -25.5q-19 -2 -37 -3t-36 -1q-120 0 -207 37t-146 106q-8 8 -14.5 17t-13.5 19q-34 -54 -77 -88t-90 -54q-51 -22 -104 -29.5t-102 -7.5
q-48 0 -100.5 7.5t-103.5 29.5q-51 21 -96 59t-80 99q-35 60 -55 145.5t-20 203.5t20 203.5t55 146.5q35 60 80 97.5t96 59.5q51 21 103 28.5t101 7.5t102 -7.5t104 -28.5q49 -21 94 -57.5t79 -93.5q39 60 91 101q51 40 118.5 63t155.5 23t169 -25.5t144 -88.5
q62 -63 99 -166.5t37 -258.5v-55zM755 200q39 45 61.5 122.5t22.5 197.5q0 121 -22.5 198t-61.5 123q-39 45 -90.5 63t-109.5 18q-57 0 -107.5 -18t-88.5 -63q-39 -46 -62 -123t-23 -198q0 -120 23 -197.5t62 -122.5q38 -46 88.5 -63.5t107.5 -17.5q58 0 109.5 17.5
t90.5 63.5zM1575 607q-8 162 -77.5 236.5t-198.5 74.5t-196.5 -74.5t-81.5 -236.5h554z" />
    <glyph glyph-name="Racute" unicode="&#x154;" horiz-adv-x="1275" 
d="M524 2010q38 27 65.5 37t55.5 10q49 0 79 -19.5t43.5 -50t11.5 -69.5t-18 -78q-11 -26 -29 -61t-38 -72.5t-40.5 -73.5t-35.5 -62h-122l79 262zM635 1438q95 0 179.5 -22t149.5 -70q66 -49 103.5 -124t37.5 -177t-37.5 -177t-103.5 -124q-51 -38 -113.5 -59t-133.5 -29
l-1 -2q29 -19 64 -53.5t73 -81.5t78 -101.5t81 -114.5l208 -303h-220l-226 350q-61 96 -105.5 155t-84.5 93q-39 34 -80 46t-95 12h-38v-656h-186v1438h450zM635 802q63 0 115 14t89.5 43.5t58.5 75.5t21 110t-21 110t-58.5 75.5t-89.5 43.5t-115 14h-264v-486h264z" />
    <glyph glyph-name="racute" unicode="&#x155;" horiz-adv-x="833" 
d="M382 1620q38 27 65.5 37t55.5 10q49 0 79 -19.5t43.5 -50t11.5 -69.5t-18 -78q-11 -26 -29 -61t-38 -72.5t-40.5 -73.5t-35.5 -62h-122l79 262zM355 799q31 62 66.5 112t78.5 85q39 34 86 50.5t107 16.5q20 0 46.5 -2t50.5 -7q-4 -50 -9.5 -94t-14.5 -89q-50 9 -91.5 13
t-78.5 -2q-44 -8 -76.5 -29.5t-60 -57t-53.5 -85t-57 -113.5v-597h-172v641q0 63 -1.5 111t-6 91.5t-13.5 86t-24 94.5q42 11 82.5 20t82.5 17q14 -40 22.5 -71t13.5 -60.5t7.5 -60t5.5 -70.5h9z" />
    <glyph glyph-name="Rcommaaccent" unicode="&#x156;" horiz-adv-x="1275" 
d="M635 1438q95 0 179.5 -22t149.5 -70q66 -49 103.5 -124t37.5 -177t-37.5 -177t-103.5 -124q-51 -38 -113.5 -59t-133.5 -29l-1 -2q29 -19 64 -53.5t73 -81.5t78 -101.5t81 -114.5l208 -303h-220l-226 350q-61 96 -105.5 155t-84.5 93q-39 34 -80 46t-95 12h-38v-656h-186
v1438h450zM635 802q63 0 115 14t89.5 43.5t58.5 75.5t21 110t-21 110t-58.5 75.5t-89.5 43.5t-115 14h-264v-486h264zM525 -183q38 27 65.5 37t55.5 10q49 0 79 -19.5t43.5 -50t11.5 -69.5t-18 -78q-11 -26 -29 -61t-38 -72.5t-40.5 -73.5t-35.5 -62h-122l79 262z" />
    <glyph glyph-name="rcommaaccent" unicode="&#x157;" horiz-adv-x="833" 
d="M355 799q31 62 66.5 112t78.5 85q39 34 86 50.5t107 16.5q20 0 46.5 -2t50.5 -7q-4 -50 -9.5 -94t-14.5 -89q-50 9 -91.5 13t-78.5 -2q-44 -8 -76.5 -29.5t-60 -57t-53.5 -85t-57 -113.5v-597h-172v641q0 63 -1.5 111t-6 91.5t-13.5 86t-24 94.5q42 11 82.5 20t82.5 17
q14 -40 22.5 -71t13.5 -60.5t7.5 -60t5.5 -70.5h9zM153 -174q38 27 65.5 37t55.5 10q49 0 79 -19.5t43.5 -50t11.5 -69.5t-18 -78q-11 -26 -29 -61t-38 -72.5t-40.5 -73.5t-35.5 -62h-122l79 262z" />
    <glyph glyph-name="Rcaron" unicode="&#x158;" horiz-adv-x="1275" 
d="M810 1902l71 -87l-313 -254l-317 254l71 87l246 -141zM635 1438q95 0 179.5 -22t149.5 -70q66 -49 103.5 -124t37.5 -177t-37.5 -177t-103.5 -124q-51 -38 -113.5 -59t-133.5 -29l-1 -2q29 -19 64 -53.5t73 -81.5t78 -101.5t81 -114.5l208 -303h-220l-226 350
q-61 96 -105.5 155t-84.5 93q-39 34 -80 46t-95 12h-38v-656h-186v1438h450zM635 802q63 0 115 14t89.5 43.5t58.5 75.5t21 110t-21 110t-58.5 75.5t-89.5 43.5t-115 14h-264v-486h264z" />
    <glyph glyph-name="rcaron" unicode="&#x159;" horiz-adv-x="833" 
d="M659 1522l71 -87l-313 -254l-317 254l71 87l246 -141zM355 799q31 62 66.5 112t78.5 85q39 34 86 50.5t107 16.5q20 0 46.5 -2t50.5 -7q-4 -50 -9.5 -94t-14.5 -89q-50 9 -91.5 13t-78.5 -2q-44 -8 -76.5 -29.5t-60 -57t-53.5 -85t-57 -113.5v-597h-172v641
q0 63 -1.5 111t-6 91.5t-13.5 86t-24 94.5q42 11 82.5 20t82.5 17q14 -40 22.5 -71t13.5 -60.5t7.5 -60t5.5 -70.5h9z" />
    <glyph glyph-name="Sacute" unicode="&#x15a;" horiz-adv-x="1196" 
d="M555 2017q38 27 65.5 37t55.5 10q49 0 79 -19.5t43.5 -50t11.5 -69.5t-18 -78q-11 -26 -29 -61t-38 -72.5t-40.5 -73.5t-35.5 -62h-122l79 262zM175 209q41 -16 86.5 -30t93 -24t95.5 -16t94 -6q79 0 143 18t110 52.5t71 85t25 115.5t-23.5 106.5t-68 69.5t-109.5 47.5
t-148 40.5q-92 24 -169.5 53.5t-134 76.5t-88.5 116.5t-32 173.5q0 85 34 154t96 117.5t149 74.5t192 26q51 0 104 -6.5t105 -17.5t102 -27t94 -35l-60 -148q-36 14 -73.5 28t-79.5 25t-89.5 17.5t-102.5 6.5t-105 -12t-88.5 -37.5t-61.5 -66.5t-23 -99q0 -65 23.5 -106.5
t68 -69.5t109.5 -47.5t148 -40.5q92 -24 169.5 -53.5t134 -76.5t88.5 -117t32 -173q0 -109 -40.5 -189.5t-113 -133.5t-172 -79t-216.5 -26q-221 0 -429 85z" />
    <glyph glyph-name="sacute" unicode="&#x15b;" horiz-adv-x="955" 
d="M443 1620q38 27 65.5 37t55.5 10q49 0 79 -19.5t43.5 -50t11.5 -69.5t-18 -78q-11 -26 -29 -61t-38 -72.5t-40.5 -73.5t-35.5 -62h-122l79 262zM477 1063q82 0 164.5 -17t153.5 -47q-14 -32 -29 -63t-33 -61q-25 10 -55.5 20t-64 17t-69 11.5t-69.5 4.5q-37 0 -71.5 -7.5
t-61 -24.5t-42.5 -44.5t-16 -68.5q0 -42 18 -70.5t49 -47.5t72.5 -32t88.5 -24q73 -18 136 -40.5t109 -58.5t72 -89t26 -131q0 -82 -32.5 -141t-88 -97.5t-129.5 -57t-158 -18.5q-44 0 -90.5 5.5t-92 16t-89.5 25.5t-83 33q14 32 29.5 62.5t32.5 60.5q33 -14 70 -26.5
t76 -21.5t77 -14.5t73 -5.5q44 0 85.5 10t74 31.5t52 55.5t19.5 82q0 45 -18.5 74t-49.5 48.5t-72.5 32t-87.5 23.5q-70 17 -132.5 39t-109 57.5t-74 88t-27.5 130.5q0 73 30 126t80.5 87t117 50.5t139.5 16.5z" />
    <glyph glyph-name="Scedilla" unicode="&#x15e;" horiz-adv-x="1196" 
d="M936 1226q-36 14 -73.5 28t-79.5 25t-89.5 17.5t-102.5 6.5t-105 -12t-88.5 -37.5t-61.5 -66.5t-23 -99q0 -65 23.5 -106.5t68 -69.5t109.5 -47.5t148 -40.5q92 -24 169.5 -53.5t134 -76.5t88.5 -117t32 -173q0 -95 -31 -168t-87 -125.5t-134 -84t-172 -43.5l-76 -95
q78 -24 111 -59t33 -91q0 -43 -16 -74t-44.5 -51.5t-67.5 -30t-85 -9.5q-42 0 -86 8.5t-90 22.5l50 92q40 -20 71.5 -31.5t60.5 -11.5q42 0 62 23t20 52q0 36 -37.5 60.5t-112.5 48.5l84 139q-218 2 -424 85l60 148q41 -16 86.5 -30t93 -24t95.5 -16t94 -6q79 0 143 18
t110 52.5t71 85t25 115.5t-23.5 106.5t-68 69.5t-109.5 47.5t-148 40.5q-92 24 -169.5 53.5t-134 76.5t-88.5 116.5t-32 173.5q0 85 34 154t96 117.5t149 74.5t192 26q51 0 104 -6.5t105 -17.5t102 -27t94 -35z" />
    <glyph glyph-name="scedilla" unicode="&#x15f;" horiz-adv-x="955" 
d="M420 -23q-83 3 -169.5 24t-158.5 55q14 32 29.5 62.5t32.5 60.5q33 -14 70 -26.5t76 -21.5t77 -14.5t73 -5.5q44 0 85.5 10t74 31.5t52 55.5t19.5 82q0 45 -18.5 74t-49.5 48.5t-72.5 32t-87.5 23.5q-70 17 -132.5 39t-109 57.5t-74 88t-27.5 130.5q0 73 30 126t80.5 87
t117 50.5t139.5 16.5q82 0 164.5 -17t153.5 -47q-14 -32 -29 -63t-33 -61q-25 10 -55.5 20t-64 17t-69 11.5t-69.5 4.5q-37 0 -71.5 -7.5t-61 -24.5t-42.5 -44.5t-16 -68.5q0 -42 18 -70.5t49 -47.5t72.5 -32t88.5 -24q73 -18 136 -40.5t109 -58.5t72 -89t26 -131
q0 -70 -24 -123.5t-66 -91.5t-99.5 -61t-124.5 -32l-75 -94q78 -24 111 -59t33 -91q0 -43 -16 -74t-44.5 -51.5t-67.5 -30t-85 -9.5q-42 0 -86 8.5t-90 22.5l50 92q40 -20 71.5 -31.5t60.5 -11.5q42 0 62 23t20 52q0 36 -37.5 60.5t-112.5 48.5z" />
    <glyph glyph-name="Scaron" unicode="&#x160;" horiz-adv-x="1196" 
d="M832 1919l71 -87l-313 -254l-317 254l71 87l246 -141zM175 209q41 -16 86.5 -30t93 -24t95.5 -16t94 -6q79 0 143 18t110 52.5t71 85t25 115.5t-23.5 106.5t-68 69.5t-109.5 47.5t-148 40.5q-92 24 -169.5 53.5t-134 76.5t-88.5 116.5t-32 173.5q0 85 34 154t96 117.5
t149 74.5t192 26q51 0 104 -6.5t105 -17.5t102 -27t94 -35l-60 -148q-36 14 -73.5 28t-79.5 25t-89.5 17.5t-102.5 6.5t-105 -12t-88.5 -37.5t-61.5 -66.5t-23 -99q0 -65 23.5 -106.5t68 -69.5t109.5 -47.5t148 -40.5q92 -24 169.5 -53.5t134 -76.5t88.5 -117t32 -173
q0 -109 -40.5 -189.5t-113 -133.5t-172 -79t-216.5 -26q-221 0 -429 85z" />
    <glyph glyph-name="scaron" unicode="&#x161;" horiz-adv-x="955" 
d="M720 1522l71 -87l-313 -254l-317 254l71 87l246 -141zM477 1063q82 0 164.5 -17t153.5 -47q-14 -32 -29 -63t-33 -61q-25 10 -55.5 20t-64 17t-69 11.5t-69.5 4.5q-37 0 -71.5 -7.5t-61 -24.5t-42.5 -44.5t-16 -68.5q0 -42 18 -70.5t49 -47.5t72.5 -32t88.5 -24
q73 -18 136 -40.5t109 -58.5t72 -89t26 -131q0 -82 -32.5 -141t-88 -97.5t-129.5 -57t-158 -18.5q-44 0 -90.5 5.5t-92 16t-89.5 25.5t-83 33q14 32 29.5 62.5t32.5 60.5q33 -14 70 -26.5t76 -21.5t77 -14.5t73 -5.5q44 0 85.5 10t74 31.5t52 55.5t19.5 82q0 45 -18.5 74
t-49.5 48.5t-72.5 32t-87.5 23.5q-70 17 -132.5 39t-109 57.5t-74 88t-27.5 130.5q0 73 30 126t80.5 87t117 50.5t139.5 16.5z" />
    <glyph glyph-name="Tcommaaccent" unicode="&#x162;" horiz-adv-x="1237" 
d="M1157 1284h-442v-1284h10l-89 -112q77 -24 110.5 -59t33.5 -91q0 -83 -58 -124t-155 -41q-76 0 -176 31l50 92q70 -43 132 -43q40 0 61 22t21 53q0 34 -36 59t-114 50l99 163h-77v1284h-447v154h1077v-154z" />
    <glyph glyph-name="tcommaaccent" unicode="&#x163;" horiz-adv-x="861" 
d="M782 895h-350v-597q0 -60 3.5 -91.5t17.5 -49.5q26 -36 105 -36q44 0 85 9q42 9 77 20q28 -61 51 -134q-82 -28 -177 -37l-72 -91q77 -24 110.5 -59t33.5 -91q0 -83 -58 -124t-155 -41q-76 0 -176 31l50 92q70 -43 132 -43q40 0 61 22t21 53q0 34 -36 59t-114 50l86 141
q-118 10 -166 81q-31 46 -41 110t-10 177v549h-150v145h150v238h172v-238h350v-145z" />
    <glyph glyph-name="Tcaron" unicode="&#x164;" horiz-adv-x="1237" 
d="M622 1761l242 141l71 -87l-313 -254l-317 254l71 87zM80 1438h1077v-154h-442v-1284h-188v1284h-447v154z" />
    <glyph glyph-name="tcaron" unicode="&#x165;" horiz-adv-x="861" 
d="M986 1057l-51 177q65 47 121 47q62 0 97.5 -33t36.5 -81.5t-18 -102.5q-28 -67 -143 -269h-122zM260 1278h172v-238h350v-145h-350v-597q0 -60 3.5 -91.5t17.5 -49.5q26 -36 105 -36q44 0 85 9q42 9 77 20q28 -61 51 -134q-118 -40 -238 -40q-87 0 -139.5 19.5
t-82.5 63.5q-31 46 -41 110t-10 177v549h-150v145h150v238z" />
    <glyph glyph-name="Tbar" unicode="&#x166;" horiz-adv-x="1237" 
d="M1157 1284h-442v-437h178v-121h-178v-726h-188v726h-147v121h147v437h-447v154h1077v-154z" />
    <glyph glyph-name="tbar" unicode="&#x167;" horiz-adv-x="861" 
d="M782 895h-350v-294h188v-121h-188v-182q0 -60 3.5 -91.5t17.5 -49.5q26 -36 105 -36q44 0 85 9q42 9 77 20q28 -61 51 -134q-118 -40 -238 -40q-87 0 -139.5 19.5t-82.5 63.5q-31 46 -41 110t-10 177v134h-153v121h153v294h-150v145h150v238h172v-238h350v-145z" />
    <glyph glyph-name="Umacron" unicode="&#x16a;" horiz-adv-x="1486" 
d="M485 1719h513v-121h-513v121zM1128 1438h188v-831q0 -314 -141 -472.5t-433 -158.5q-572 0 -572 631v831h188v-832q0 -110 19 -193.5t62 -148t119 -98t184 -33.5q88 0 155.5 22.5t110.5 62.5t70.5 100.5t38.5 130t11 157.5v832z" />
    <glyph glyph-name="umacron" unicode="&#x16b;" horiz-adv-x="1158" 
d="M313 1332h513v-121h-513v121zM1028 18l-166 -37q-19 60 -27 116q-4 26 -10 106h-21q-55 -101 -136 -161q-89 -66 -188 -66q-149 0 -227 72q-67 61 -93 187q-17 86 -17 256v549h172v-597q0 -149 29 -213q43 -95 173 -95q92 0 180 88q59 59 126 173v644h172v-642
q0 -133 7 -231q4 -61 26 -149z" />
    <glyph glyph-name="Uring" unicode="&#x16e;" horiz-adv-x="1486" 
d="M737 1922q37 0 69.5 -13.5t56.5 -37.5t37.5 -56.5t13.5 -69.5t-13.5 -69.5t-37.5 -56.5t-56.5 -37.5t-69.5 -13.5t-69.5 13.5t-56.5 37.5t-37.5 56.5t-13.5 69.5t13.5 69.5t37.5 56.5t56.5 37.5t69.5 13.5zM737 1828q-35 0 -59 -24t-24 -59t24 -59t59 -24t59 24t24 59
t-24 59t-59 24zM1316 1438v-831q0 -311 -139.5 -471t-434.5 -160q-148 0 -255.5 41t-178 121t-104.5 197.5t-34 271.5v831h188v-832q0 -106 18.5 -193t63 -149.5t118.5 -96.5t184 -34q113 0 187.5 34.5t118.5 97t62 149.5t18 192v832h188z" />
    <glyph glyph-name="uring" unicode="&#x16f;" horiz-adv-x="1158" 
d="M559 1552q37 0 69.5 -13.5t56.5 -37.5t37.5 -56.5t13.5 -69.5t-13.5 -69.5t-37.5 -56.5t-56.5 -37.5t-69.5 -13.5t-69.5 13.5t-56.5 37.5t-37.5 56.5t-13.5 69.5t13.5 69.5t37.5 56.5t56.5 37.5t69.5 13.5zM559 1458q-35 0 -59 -24t-24 -59t24 -59t59 -24t59 24t24 59
t-24 59t-59 24zM862 -19q-10 31 -16.5 60.5t-10.5 55.5t-6 51.5t-4 54.5h-21q-26 -48 -60 -89t-76 -72t-89 -48.5t-99 -17.5q-78 0 -133.5 18.5t-93.5 53.5t-59.5 82.5t-33.5 104.5q-11 57 -14 122t-3 134v549h172v-597q0 -60 4.5 -115t24.5 -98t60.5 -69t112.5 -26
q52 0 97 25t83 63q39 39 70 85t56 88v644h172v-642q0 -81 2 -135t5 -96t9.5 -75.5t16.5 -73.5z" />
    <glyph glyph-name="Uhungarumlaut" unicode="&#x170;" horiz-adv-x="1486" 
d="M568 1833l-51 177q65 47 121 47q62 0 97.5 -33t36.5 -81.5t-18 -102.5q-28 -67 -143 -269h-122zM932 1833l-51 177q65 47 121 47q62 0 97.5 -33t36.5 -81.5t-18 -102.5q-28 -67 -143 -269h-122zM1128 1438h188v-831q0 -314 -141 -472.5t-433 -158.5q-572 0 -572 631v831
h188v-832q0 -110 19 -193.5t62 -148t119 -98t184 -33.5q88 0 155.5 22.5t110.5 62.5t70.5 100.5t38.5 130t11 157.5v832z" />
    <glyph glyph-name="uhungarumlaut" unicode="&#x171;" horiz-adv-x="1158" 
d="M379 1473l-51 177q65 47 121 47q62 0 97.5 -33t36.5 -81.5t-18 -102.5q-28 -67 -143 -269h-122zM743 1473l-51 177q65 47 121 47q62 0 97.5 -33t36.5 -81.5t-18 -102.5q-28 -67 -143 -269h-122zM1028 18l-166 -37q-19 60 -27 116q-4 26 -10 106h-21q-55 -101 -136 -161
q-89 -66 -188 -66q-149 0 -227 72q-67 61 -93 187q-17 86 -17 256v549h172v-597q0 -149 29 -213q43 -95 173 -95q92 0 180 88q59 59 126 173v644h172v-642q0 -133 7 -231q4 -61 26 -149z" />
    <glyph glyph-name="Uogonek" unicode="&#x172;" horiz-adv-x="1486" 
d="M1128 1438h188v-831q0 -298 -126.5 -455.5t-388.5 -173.5q-47 -58 -68.5 -98.5t-21.5 -83.5q0 -92 71 -92q37 0 102 25l-5 -90q-71 -47 -149 -47q-65 0 -106 44.5t-41 121.5q0 63 25 108t84 111q-522 28 -522 630v831h188v-832q0 -110 19 -193.5t62 -148t119 -98
t184 -33.5q88 0 155.5 22.5t110.5 62.5t70.5 100.5t38.5 130t11 157.5v832z" />
    <glyph glyph-name="uogonek" unicode="&#x173;" horiz-adv-x="1158" 
d="M1028 18l-76 -17q-59 -71 -84 -114t-25 -91q0 -92 71 -92q37 0 102 25l-5 -90q-71 -47 -149 -47q-65 0 -106 44.5t-41 121.5q0 37 7.5 66.5t32.5 65.5t39 52.5t59 67.5q-12 46 -18 87q-4 26 -10 106h-21q-55 -101 -136 -161q-89 -66 -188 -66q-149 0 -227 72
q-67 61 -93 187q-17 86 -17 256v549h172v-597q0 -149 29 -213q43 -95 173 -95q92 0 180 88q59 59 126 173v644h172v-642q0 -133 7 -231q4 -61 26 -149z" />
    <glyph glyph-name="Wcircumflex" unicode="&#x174;" horiz-adv-x="1850" 
d="M607 1648l317 254l313 -254l-71 -87l-242 141l-246 -141zM1777 1437l-173 -1437h-279l-400 1245l-400 -1245h-279l-173 1437h183l150 -1210h10l397 1210h224l397 -1210h10l150 1210h183z" />
    <glyph glyph-name="wcircumflex" unicode="&#x175;" horiz-adv-x="1491" 
d="M412 1278l317 254l313 -254l-71 -87l-242 141l-246 -141zM1112 0h-229l-125 483l-201 -483h-226l-266 1041h172l219 -916l242 600l-81 316h172l225 -916q108 250 151 376q52 153 52 263q0 96 -47 259q91 23 165 37q42 -103 53 -222q3 -30 3 -61q0 -164 -92 -382
q-25 -58 -56.5 -124.5t-74 -154t-56.5 -116.5z" />
    <glyph glyph-name="Ycircumflex" unicode="&#x176;" horiz-adv-x="1357" 
d="M365 1648l317 254l313 -254l-71 -87l-242 141l-246 -141zM1078 1438h214l-520 -790v-648h-187v648l-520 790h214l399 -636z" />
    <glyph glyph-name="ycircumflex" unicode="&#x177;" horiz-adv-x="1186" 
d="M593 1522l313 -254l-71 -87l-242 141l-246 -141l-71 87zM1010 1040v-1063q0 -99 -32.5 -171t-90 -119t-136.5 -69.5t-172 -22.5q-84 0 -169 14.5t-162 40.5q13 35 27 68l28 66q24 -8 57.5 -17t71 -16.5t77 -12t76.5 -4.5q58 0 105 15.5t80 46.5t50.5 76.5t17.5 104.5v226
h-19q-26 -47 -60 -88.5t-75 -72.5t-88.5 -48.5t-100.5 -17.5q-73 0 -127 16.5t-92.5 49t-63 81t-37.5 112.5q-11 57 -14 122t-3 134v549h172v-597q0 -65 6 -121.5t26.5 -98t60.5 -65t109 -23.5q51 0 96 24.5t83 62.5t69.5 84t57.5 90v644h172z" />
    <glyph glyph-name="Ydieresis" unicode="&#x178;" horiz-adv-x="1357" 
d="M457 1798q24 0 46 -9.5t38 -25.5t25.5 -38t9.5 -46q0 -26 -9.5 -48t-25.5 -38t-38 -25.5t-46 -9.5q-26 0 -48 9.5t-39 25.5q-36 33 -36 86q0 24 9.5 46t26.5 38t39 25.5t48 9.5zM899 1798q25 0 47 -9.5t39 -25.5t26 -38t9 -46q0 -53 -35 -86q-17 -16 -39 -25.5t-47 -9.5
q-24 0 -45.5 9.5t-38.5 25.5t-27 38t-10 48q0 24 10 46t27 38t38.5 25.5t45.5 9.5zM1292 1438l-520 -790v-648h-187v648l-520 790h214l399 -636l400 636h214z" />
    <glyph glyph-name="Zacute" unicode="&#x179;" horiz-adv-x="1234" 
d="M618 1833l-51 177q65 47 121 47q62 0 97.5 -33t36.5 -81.5t-18 -102.5q-28 -67 -143 -269h-122zM171 1438h910v-134l-701 -1150h707v-154h-940v132l703 1152h-679v154z" />
    <glyph glyph-name="zacute" unicode="&#x17a;" horiz-adv-x="991" 
d="M491 1620q38 27 65.5 37t55.5 10q49 0 79 -19.5t43.5 -50t11.5 -69.5t-18 -78q-11 -26 -29 -61t-38 -72.5t-40.5 -73.5t-35.5 -62h-122l79 262zM400 895q-41 0 -75 1t-65.5 4.5t-64 11.5t-70.5 22q13 36 25.5 70t25.5 72q40 -13 71 -20t61 -10.5t62 -4.5t76 -1h420v-120
l-522 -775h531v-145h-746v121l521 774h-250z" />
    <glyph glyph-name="Zdotaccent" unicode="&#x17b;" horiz-adv-x="1234" 
d="M617 1798q49 0 86 -35q35 -33 35 -84q0 -53 -35 -86q-37 -35 -86 -35q-47 0 -84 35t-37 86q0 49 37 84t84 35zM171 1438h910v-134l-701 -1150h707v-154h-940v132l703 1152h-679v154z" />
    <glyph glyph-name="zdotaccent" unicode="&#x17c;" horiz-adv-x="991" 
d="M526 1418q25 0 47 -9.5t38.5 -25.5t26 -37.5t9.5 -46.5q0 -27 -10 -49.5t-26.5 -38t-38.5 -24.5t-46 -9t-46 9.5t-38.5 26t-26.5 38.5t-10 47t10.5 46.5t27.5 37.5t38.5 25.5t44.5 9.5zM400 895q-41 0 -75 1t-65.5 4.5t-64 11.5t-70.5 22q13 36 25.5 70t25.5 72
q40 -13 71 -20t61 -10.5t62 -4.5t76 -1h420v-120l-522 -775h531v-145h-746v121l521 774h-250z" />
    <glyph glyph-name="Zcaron" unicode="&#x17d;" horiz-adv-x="1234" 
d="M616 1761l242 141l71 -87l-313 -254l-317 254l71 87zM171 1438h910v-134l-701 -1150h707v-154h-940v132l703 1152h-679v154z" />
    <glyph glyph-name="zcaron" unicode="&#x17e;" horiz-adv-x="991" 
d="M768 1522l71 -87l-313 -254l-317 254l71 87l246 -141zM400 895q-41 0 -75 1t-65.5 4.5t-64 11.5t-70.5 22q13 36 25.5 70t25.5 72q40 -13 71 -20t61 -10.5t62 -4.5t76 -1h420v-120l-522 -775h531v-145h-746v121l521 774h-250z" />
    <glyph glyph-name="Scommaaccent" unicode="&#x218;" horiz-adv-x="1196" 
d="M175 209q41 -16 86.5 -30t93 -24t95.5 -16t94 -6q79 0 143 18t110 52.5t71 85t25 115.5t-23.5 106.5t-68 69.5t-109.5 47.5t-148 40.5q-92 24 -169.5 53.5t-134 76.5t-88.5 116.5t-32 173.5q0 85 34 154t96 117.5t149 74.5t192 26q51 0 104 -6.5t105 -17.5t102 -27
t94 -35l-60 -148q-36 14 -73.5 28t-79.5 25t-89.5 17.5t-102.5 6.5t-105 -12t-88.5 -37.5t-61.5 -66.5t-23 -99q0 -65 23.5 -106.5t68 -69.5t109.5 -47.5t148 -40.5q92 -24 169.5 -53.5t134 -76.5t88.5 -117t32 -173q0 -109 -40.5 -189.5t-113 -133.5t-172 -79t-216.5 -26
q-221 0 -429 85zM484 -174q38 27 65.5 37t55.5 10q49 0 79 -19.5t43.5 -50t11.5 -69.5t-18 -78q-11 -26 -29 -61t-38 -72.5t-40.5 -73.5t-35.5 -62h-122l79 262z" />
    <glyph glyph-name="scommaaccent" unicode="&#x219;" horiz-adv-x="955" 
d="M477 1063q82 0 164.5 -17t153.5 -47q-14 -32 -29 -63t-33 -61q-25 10 -55.5 20t-64 17t-69 11.5t-69.5 4.5q-37 0 -71.5 -7.5t-61 -24.5t-42.5 -44.5t-16 -68.5q0 -42 18 -70.5t49 -47.5t72.5 -32t88.5 -24q73 -18 136 -40.5t109 -58.5t72 -89t26 -131q0 -82 -32.5 -141
t-88 -97.5t-129.5 -57t-158 -18.5q-44 0 -90.5 5.5t-92 16t-89.5 25.5t-83 33q14 32 29.5 62.5t32.5 60.5q33 -14 70 -26.5t76 -21.5t77 -14.5t73 -5.5q44 0 85.5 10t74 31.5t52 55.5t19.5 82q0 45 -18.5 74t-49.5 48.5t-72.5 32t-87.5 23.5q-70 17 -132.5 39t-109 57.5
t-74 88t-27.5 130.5q0 73 30 126t80.5 87t117 50.5t139.5 16.5zM364 -174q38 27 65.5 37t55.5 10q49 0 79 -19.5t43.5 -50t11.5 -69.5t-18 -78q-11 -26 -29 -61t-38 -72.5t-40.5 -73.5t-35.5 -62h-122l79 262z" />
    <glyph glyph-name="uni021A" unicode="&#x21a;" horiz-adv-x="1237" 
d="M80 1438h1077v-154h-442v-1284h-188v1284h-447v154zM548 -360l-51 177q65 47 121 47q62 0 97.5 -33t36.5 -81.5t-18 -102.5q-28 -67 -143 -269h-122z" />
    <glyph glyph-name="uni021B" unicode="&#x21b;" horiz-adv-x="861" 
d="M260 1278h172v-238h350v-145h-350v-597q0 -60 3.5 -91.5t17.5 -49.5q26 -36 105 -36q44 0 85 9q42 9 77 20q28 -61 51 -134q-118 -40 -238 -40q-87 0 -139.5 19.5t-82.5 63.5q-31 46 -41 110t-10 177v549h-150v145h150v238zM447 -360l-51 177q65 47 121 47q62 0 97.5 -33
t36.5 -81.5t-18 -102.5q-28 -67 -143 -269h-122z" />
    <glyph glyph-name="circumflex" unicode="&#x2c6;" horiz-adv-x="830" 
d="M100 1268l317 254l313 -254l-71 -87l-242 141l-246 -141z" />
    <glyph glyph-name="caron" unicode="&#x2c7;" horiz-adv-x="830" 
d="M728 1435l-313 -254l-317 254l71 87l246 -141l242 141z" />
    <glyph glyph-name="breve" unicode="&#x2d8;" horiz-adv-x="724" 
d="M567 1507h76q-15 -135 -89 -217t-192 -82q-119 0 -192.5 82.5t-88.5 216.5h76q31 -81 80.5 -117t124.5 -36t124.5 36t80.5 117z" />
    <glyph glyph-name="dotaccent" unicode="&#x2d9;" horiz-adv-x="600" 
d="M300 1418q50 0 85.5 -35t35.5 -84q0 -53 -35.5 -87t-85.5 -34q-48 0 -84.5 36t-36.5 85q0 48 37.5 83.5t83.5 35.5z" />
    <glyph glyph-name="ring" unicode="&#x2da;" horiz-adv-x="710" 
d="M353 1542q37 0 69.5 -13.5t56.5 -37.5t37.5 -56.5t13.5 -69.5t-13.5 -69.5t-37.5 -56.5t-56.5 -37.5t-69.5 -13.5t-69.5 13.5t-56.5 37.5t-37.5 56.5t-13.5 69.5t13.5 69.5t37.5 56.5t56.5 37.5t69.5 13.5zM353 1448q-35 0 -59 -24t-24 -59t24 -59t59 -24t59 24t24 59
t-24 59t-59 24z" />
    <glyph glyph-name="ogonek" unicode="&#x2db;" horiz-adv-x="600" 
d="M305 12l98 -10q-60 -72 -85 -115t-25 -91q0 -92 71 -92q37 0 102 25l-5 -90q-71 -47 -149 -47q-65 0 -106 44.5t-41 121.5q0 47 18 89.5t38 68t70 80.5q5 5 8 8.5t6 7.5z" />
    <glyph glyph-name="tilde" unicode="&#x2dc;" horiz-adv-x="991" 
d="M774 1398h100q-15 -95 -58 -146q-53 -61 -141 -61q-40 0 -130 34t-128 34q-31 0 -53 -25t-22 -51h-103q12 80 58 137q53 68 129 68q48 0 134 -35t124 -35q68 0 90 80z" />
    <glyph glyph-name="hungarumlaut" unicode="&#x2dd;" horiz-adv-x="798" 
d="M244 1443l-51 177q65 47 121 47q62 0 97.5 -33t36.5 -81.5t-18 -102.5q-28 -67 -143 -269h-122zM608 1443l-51 177q65 47 121 47q62 0 97.5 -33t36.5 -81.5t-18 -102.5q-28 -67 -143 -269h-122z" />
    <glyph glyph-name="afii57799" unicode="&#x5b0;" 
d="M440 -127q35 0 59.5 -24.5t24.5 -59.5q0 -19 -7 -34t-19 -25.5t-27 -16.5t-31 -6q-34 0 -58 23.5t-24 58.5q0 37 25 60.5t57 23.5zM440 -418q35 0 59.5 -24.5t24.5 -59.5q0 -19 -7 -34t-19 -25.5t-27 -16.5t-31 -6q-34 0 -58 23.5t-24 58.5q0 37 25 60.5t57 23.5z" />
    <glyph glyph-name="afii57801" unicode="&#x5b1;" 
d="M149 -127q37 0 60.5 -25t23.5 -57q0 -34 -24.5 -59t-59.5 -25t-58.5 25t-23.5 59t23.5 58t58.5 24zM440 -127q37 0 60.5 -25t23.5 -57q0 -34 -24.5 -59t-59.5 -25t-58.5 25t-23.5 59t23.5 58t58.5 24zM727 -127q37 0 60.5 -25t23.5 -57q0 -34 -24.5 -59t-59.5 -25
t-58.5 25t-23.5 59t23.5 58t58.5 24zM292 -362q37 0 60.5 -25t23.5 -57q0 -34 -24.5 -59t-59.5 -25t-58.5 25t-23.5 59t23.5 58t58.5 24zM726 -418q37 0 60.5 -25t23.5 -57q0 -34 -24.5 -59t-59.5 -25t-58.5 25t-23.5 59t23.5 58t58.5 24z" />
    <glyph glyph-name="afii57800" unicode="&#x5b2;" 
d="M712 -127q37 0 60.5 -25t23.5 -57q0 -34 -24.5 -59t-59.5 -25t-58.5 25t-23.5 59t23.5 58t58.5 24zM546 -152v-118h-469v118h469zM711 -418q37 0 60.5 -25t23.5 -57q0 -34 -24.5 -59t-59.5 -25t-58.5 25t-23.5 59t23.5 58t58.5 24z" />
    <glyph glyph-name="afii57802" unicode="&#x5b3;" 
d="M711 -127q37 0 60.5 -25t23.5 -57q0 -34 -24.5 -59t-59.5 -25t-58.5 25t-23.5 59t23.5 58t58.5 24zM545 -152v-118h-178l20 -250h-157l20 250h-174v118h469zM710 -418q37 0 60.5 -25t23.5 -57q0 -34 -24.5 -59t-59.5 -25t-58.5 25t-23.5 59t23.5 58t58.5 24z" />
    <glyph glyph-name="afii57793" unicode="&#x5b4;" 
d="M440 -127q37 0 60.5 -25t23.5 -57q0 -34 -24.5 -59t-59.5 -25t-58.5 25t-23.5 59t23.5 58t58.5 24z" />
    <glyph glyph-name="afii57794" unicode="&#x5b5;" 
d="M292 -127q37 0 60.5 -25t23.5 -57q0 -34 -24.5 -59t-59.5 -25t-58.5 25t-23.5 59t23.5 58t58.5 24zM583 -127q37 0 60.5 -25t23.5 -57q0 -34 -24.5 -59t-59.5 -25t-58.5 25t-23.5 59t23.5 58t58.5 24z" />
    <glyph glyph-name="afii57795" unicode="&#x5b6;" 
d="M293 -127q37 0 60.5 -25t23.5 -57q0 -34 -24.5 -59t-59.5 -25t-58.5 25t-23.5 59t23.5 58t58.5 24zM584 -127q37 0 60.5 -25t23.5 -57q0 -34 -24.5 -59t-59.5 -25t-58.5 25t-23.5 59t23.5 58t58.5 24zM436 -362q37 0 60.5 -25t23.5 -57q0 -34 -24.5 -59t-59.5 -25
t-58.5 25t-23.5 59t23.5 58t58.5 24z" />
    <glyph glyph-name="afii57798" unicode="&#x5b7;" 
d="M671 -152v-118h-469v118h469z" />
    <glyph glyph-name="afii57797" unicode="&#x5b8;" 
d="M671 -152v-118h-178l20 -250h-157l20 250h-174v118h469z" />
    <glyph glyph-name="afii57806" unicode="&#x5b9;" 
d="M300 1365q39 0 65.5 -26t26.5 -64q0 -39 -26.5 -66t-65.5 -27q-38 0 -64 27.5t-26 65.5q0 37 26 63.5t64 26.5z" />
    <glyph glyph-name="uni05BA" unicode="&#x5ba;" 
d="M300 1365q39 0 65.5 -26t26.5 -64q0 -39 -26.5 -66t-65.5 -27q-38 0 -64 27.5t-26 65.5q0 37 26 63.5t64 26.5z" />
    <glyph glyph-name="afii57796" unicode="&#x5bb;" 
d="M440 -127q37 0 60.5 -25t23.5 -57q0 -34 -24.5 -59t-59.5 -25t-58.5 25t-23.5 59t23.5 58t58.5 24zM604 -321q37 0 60.5 -25t23.5 -57q0 -34 -24.5 -59t-59.5 -25t-58.5 25t-23.5 59t23.5 58t58.5 24zM768 -516q37 0 60.5 -25t23.5 -57q0 -34 -24.5 -59t-59.5 -25
t-58.5 25t-23.5 59t23.5 58t58.5 24z" />
    <glyph glyph-name="afii57807" unicode="&#x5bc;" 
d="M300 641q39 0 65.5 -26t26.5 -64q0 -18 -7.5 -35t-20 -29.5t-29 -20t-35.5 -7.5t-35.5 7.5t-28.5 20t-19 29.5t-7 35q0 37 26 63.5t64 26.5z" />
    <glyph glyph-name="afii57645" unicode="&#x5be;" horiz-adv-x="768" 
d="M140 1039h488v-152h-488v152z" />
    <glyph glyph-name="afii57842" unicode="&#x5c0;" horiz-adv-x="615" 
d="M230 1571h155v-1702h-155v1702z" />
    <glyph glyph-name="afii57804" unicode="&#x5c1;" 
d="M300 1365q39 0 65.5 -26t26.5 -64q0 -39 -26.5 -66t-65.5 -27q-37 0 -63.5 27.5t-26.5 65.5q0 37 26.5 63.5t63.5 26.5z" />
    <glyph glyph-name="afii57803" unicode="&#x5c2;" 
d="M300 1365q39 0 65.5 -26t26.5 -64q0 -39 -26.5 -66t-65.5 -27q-37 0 -63.5 27.5t-26.5 65.5q0 37 26.5 63.5t63.5 26.5z" />
    <glyph glyph-name="afii57658" unicode="&#x5c3;" horiz-adv-x="670" 
d="M335 887q28 0 52.5 -10.5t42.5 -28.5t28.5 -42.5t10.5 -52.5q0 -27 -10.5 -51.5t-28.5 -42.5q-18 -19 -42.5 -29.5t-52.5 -10.5t-52.5 10.5t-42.5 29.5q-18 18 -28.5 42.5t-10.5 51.5q0 28 10.5 52.5t28.5 42.5t42.5 28.5t52.5 10.5zM335 248q28 0 52.5 -10.5t42.5 -28.5
t28.5 -42.5t10.5 -52.5q0 -27 -10.5 -51.5t-28.5 -42.5q-18 -19 -42.5 -29.5t-52.5 -10.5t-52.5 10.5t-42.5 29.5q-18 18 -28.5 42.5t-10.5 51.5q0 28 10.5 52.5t28.5 42.5t42.5 28.5t52.5 10.5z" />
    <glyph glyph-name="uni05C7" unicode="&#x5c7;" 
d="M671 -152v-118h-178l20 -250h-157l20 250h-174v118h469z" />
    <glyph glyph-name="afii57664" unicode="&#x5d0;" horiz-adv-x="1151" 
d="M117 -9q0 28 0.5 64t1 77.5t1.5 85.5l2 88q2 75 11 133.5t26 106.5t42.5 89t60.5 81q-35 50 -59.5 91t-39.5 75q-16 35 -27 71t-19 67q36 16 78 29.5t84 23.5q4 -12 7.5 -23.5t7.5 -23.5q10 -32 22.5 -64t32.5 -70t50.5 -84t76.5 -104q16 -21 31.5 -38.5t36.5 -41.5
t52 -59.5t80 -91.5l4 -5q36 26 59 55t39.5 62.5t29 72t25.5 82.5q11 39 21.5 78.5t20.5 78.5l-146 28l27 140l280 -49l5 -129q-10 -48 -26 -105t-30 -106q-18 -63 -35.5 -109t-39.5 -83t-52.5 -69t-75.5 -66l239 -281l-122 -108l-534 617q-31 -38 -45.5 -88t-20.5 -105.5
t-6 -115t-1 -117.5q-1 -32 -1 -69.5t-1 -90.5h-173z" />
    <glyph glyph-name="afii57665" unicode="&#x5d1;" horiz-adv-x="1121" 
d="M444 887q-44 0 -79 1t-67.5 5t-65.5 12.5t-72 23.5q13 36 25.5 72t25.5 74q42 -13 74 -20t62.5 -10.5t64 -4.5t78.5 -1h29q63 0 124 -14t110 -53q48 -38 78 -105t30 -175v-540h184v-152h-947v152h590v515q0 62 -9 104.5t-31.5 68t-61.5 36.5t-99 11h-43z" />
    <glyph glyph-name="afii57666" unicode="&#x5d2;" horiz-adv-x="833" 
d="M614 1039v-537q0 -48 14 -91.5t31 -88.5q29 -78 54.5 -157.5t45.5 -164.5h-161q-13 52 -30.5 109.5t-37.5 108.5l-25 64q-32 -37 -53.5 -62.5t-38.5 -44t-31.5 -34t-31.5 -32.5q-53 -54 -115 -89t-143 -47q-10 38 -18.5 76.5t-15.5 76.5q34 9 62 18t53 22.5t47.5 32
t46.5 45.5l180 197v446h-228v152h395z" />
    <glyph glyph-name="afii57667" unicode="&#x5d3;" horiz-adv-x="1089" 
d="M381 887q-44 0 -79 1t-67.5 5t-65.5 12.5t-72 23.5q13 36 25.5 72t25.5 74q42 -13 74 -20t62.5 -10.5t64 -4.5t78.5 -1h572v-152h-202v-887h-173v887h-243z" />
    <glyph glyph-name="afii57668" unicode="&#x5d4;" horiz-adv-x="1128" 
d="M425 887q-44 0 -79 1t-67.5 5t-65.5 12.5t-72 23.5q13 36 25.5 72t25.5 74q42 -13 74 -20t62.5 -10.5t64 -4.5t78.5 -1h195q63 0 124 -14t110 -54q48 -38 78 -107t30 -178v-686h-173v667q0 63 -8.5 105t-31 67.5t-62 36.5t-100.5 11h-208zM157 314q0 45 0.5 79t3.5 65
t8 62.5t14 69.5q42 -6 84.5 -12.5t84.5 -12.5q-6 -36 -10.5 -64.5t-7 -57t-3.5 -60t-1 -73.5v-310h-173v314z" />
    <glyph glyph-name="afii57669" unicode="&#x5d5;" horiz-adv-x="655" 
d="M479 1039v-1039h-173v887h-175v152h348z" />
    <glyph glyph-name="afii57670" unicode="&#x5d6;" horiz-adv-x="836" 
d="M317 887q-30 1 -57 3t-53.5 6.5t-54 12.5t-59.5 20q13 36 25.5 72t25.5 74q42 -13 74 -20t62.5 -10.5t64 -4.5t78.5 -1h328v-152h-260l141 -887h-177z" />
    <glyph glyph-name="afii57671" unicode="&#x5d7;" horiz-adv-x="1147" 
d="M181 557q0 49 1.5 90.5t7.5 80.5t17 79t30 86q-33 4 -66.5 12.5t-73.5 23.5q13 36 25.5 72t25.5 74q42 -13 74 -20t62.5 -10.5t64 -4.5t78.5 -1h247q63 0 124.5 -14t110.5 -53q49 -38 79 -105t30 -175v-692h-173v667q0 64 -9 106t-32 67.5t-62 36t-98 10.5h-239
q-20 -42 -30.5 -83.5t-15 -81.5t-5 -78.5t-0.5 -75.5v-568h-173v557z" />
    <glyph glyph-name="afii57672" unicode="&#x5d8;" horiz-adv-x="1250" 
d="M184 545q-6 95 -8.5 159.5t-7 113.5t-14.5 89.5t-29 86.5q36 20 74.5 36t76.5 30q19 -36 31 -69.5t19 -72.5t11 -89t8 -119l31 -564q14 -1 28 -1.5t28 -0.5q114 0 211 35t168.5 109t112 188t40.5 273q0 36 -2.5 66.5t-7.5 52.5q-48 12 -92.5 20t-96.5 13
q-12 -35 -22.5 -63.5t-20 -56.5t-19 -56.5t-19.5 -62.5l-139 46q24 88 53.5 174.5t61.5 173.5q125 -8 232.5 -28.5t207.5 -42.5q14 -56 19.5 -116t5.5 -133q0 -175 -47.5 -307.5t-132.5 -225.5q-59 -63 -123.5 -104t-134 -65t-143.5 -33t-150 -9q-48 0 -92.5 2.5t-84.5 7.5z
" />
    <glyph glyph-name="afii57673" unicode="&#x5d9;" horiz-adv-x="660" 
d="M515 1039v-324q0 -54 -1 -90t-4 -66t-8 -58t-13 -62l-169 25q5 30 9 55t7 53t4.5 63t1.5 84v168h-229v152h402z" />
    <glyph glyph-name="afii57674" unicode="&#x5da;" horiz-adv-x="990" 
d="M375 887q-44 0 -79 1t-67.5 5t-65.5 12.5t-72 23.5q13 36 25.5 72t25.5 74q42 -13 74 -20t62.5 -10.5t64 -4.5t78.5 -1h380q9 -30 14.5 -52.5t8.5 -39.5q3 -18 4 -33t1 -31v-1198h-173v1202h-281z" />
    <glyph glyph-name="afii57675" unicode="&#x5db;" horiz-adv-x="1025" 
d="M432 887q-44 0 -79 1t-67.5 5t-65.5 12.5t-72 23.5q13 36 25.5 72t25.5 74q42 -13 74 -20t62.5 -10.5t64 -4.5t78.5 -1h60q61 0 120.5 -15.5t107.5 -55.5t79.5 -108t36.5 -174q3 -56 4 -111.5t2 -114.5t1 -124v-138q0 -24 -1 -43.5t-4 -41.5t-8.5 -48.5t-14.5 -64.5h-763
v152h621q0 123 -2 254.5t-7 260.5q-2 63 -11.5 105t-31.5 67.5t-60.5 36.5t-99.5 11h-75z" />
    <glyph glyph-name="afii57676" unicode="&#x5dc;" horiz-adv-x="1002" 
d="M293 1323v-284h577q9 -33 14 -55t8 -39q2 -18 2.5 -33.5t0.5 -33.5v-216q0 -118 -47.5 -223t-141.5 -210l-245 -269l-122 109l229 256q33 38 61.5 74t49 75t32 83.5t11.5 98.5v231h-602v436h173z" />
    <glyph glyph-name="afii57677" unicode="&#x5dd;" horiz-adv-x="1143" 
d="M163 557q0 49 1.5 90.5t7.5 80.5t17 79t30 86q-33 4 -66.5 12.5t-73.5 23.5q13 36 25.5 72t25.5 74q42 -13 74 -20.5t62.5 -11t64 -4t78.5 -0.5h270q63 0 124.5 -14t110.5 -53q49 -38 79 -105t30 -175v-692h-860v557zM850 667q0 64 -9 106t-32 67.5t-62 36t-98 10.5h-262
q-20 -42 -30.5 -83.5t-15 -81.5t-5 -78.5t-0.5 -75.5v-416h514v515z" />
    <glyph glyph-name="afii57678" unicode="&#x5de;" horiz-adv-x="1194" 
d="M105 -9q16 99 28.5 172.5t22.5 130.5t17.5 102.5t15 89t14.5 89.5t16 104q5 50 1.5 84.5t-17 67t-37.5 69t-59 91.5q20 12 36 22t33 20t36.5 21.5t47.5 27.5q23 -32 39.5 -56t29.5 -44.5t23 -40.5t20 -42q42 39 80.5 69.5t78.5 51t85 31.5t99 11q132 0 220 -68.5
t117 -210.5q8 -40 11.5 -99.5t5 -123t1 -124t-0.5 -103.5q-1 -69 -3 -132t-5 -105q-2 -22 -4 -46t-6 -50h-493v152h335q1 17 2.5 37t2 53.5t1 87t0.5 137.5q0 38 -1 77.5t-3 76t-5.5 68.5t-8.5 55q-9 37 -23 67.5t-36 51.5t-52 32.5t-71 11.5q-44 0 -84.5 -14t-77.5 -37.5
t-71 -54.5t-65 -64q-18 -111 -31.5 -196t-24.5 -152.5t-19.5 -120t-16.5 -98.5t-15 -89t-15 -90h-174z" />
    <glyph glyph-name="afii57679" unicode="&#x5df;" horiz-adv-x="621" 
d="M487 1039v-1354h-173v1202h-205v152h378z" />
    <glyph glyph-name="afii57680" unicode="&#x5e0;" horiz-adv-x="794" 
d="M583 1039l4 -34q3 -34 9.5 -92.5t14.5 -137t17.5 -169.5t19.5 -189.5t19 -195.5q4 -44 6 -72t2 -50.5t-2 -44.5t-6 -54h-596v152h433l-77 735h-244v152h400z" />
    <glyph glyph-name="afii57681" unicode="&#x5e1;" horiz-adv-x="1149" 
d="M692 1039q91 0 156.5 -22.5t108.5 -70.5q29 -33 47 -79.5t28 -98.5t13.5 -106.5t3.5 -105.5q0 -78 -9 -160q-12 -100 -46.5 -178t-89.5 -131.5t-129.5 -81.5t-165.5 -28q-117 0 -199.5 38.5t-134.5 106t-76 159t-24 197.5q0 60 7 122.5t27 131.5q13 42 29.5 81.5
t38.5 75.5q-45 3 -86 11.5t-92 28.5q13 36 25.5 72t25.5 74q42 -13 74 -20t62.5 -10.5t64 -4.5t78.5 -1h263zM449 887q-45 -67 -68 -144t-28 -153q-2 -30 -3.5 -60t-1.5 -60q0 -68 10.5 -129t41.5 -107q32 -50 84 -77.5t122 -27.5q52 0 96 16.5t77.5 48.5t55.5 79t30 107
q5 45 8 83.5t3 74.5q0 53 -4.5 101t-12.5 99q-6 42 -18 70.5t-34 46t-57 25t-87 7.5h-214z" />
    <glyph glyph-name="afii57682" unicode="&#x5e2;" horiz-adv-x="1122" 
d="M704 917q10 38 20.5 74.5t21.5 74.5l295 -78q3 -35 5 -70t2 -70q-10 -84 -29.5 -164.5t-50.5 -156.5t-75.5 -146.5t-104.5 -133.5q-63 -66 -142 -119.5t-173 -98.5q-68 -32 -142.5 -59t-159.5 -50l-49 154q78 23 160.5 51t167.5 67q-54 140 -106.5 279.5t-106.5 279.5
q-14 36 -24.5 57.5t-27.5 38.5q-18 17 -47 32t-80 39q18 36 37 72t39 72q55 -22 94 -40t67 -40q28 -20 47 -47t36 -69l20 -52t22 -58t27 -73.5t35.5 -98.5t47 -132t62.5 -175q66 49 113.5 111.5t81.5 137.5q33 75 54 160.5t32 184.5z" />
    <glyph glyph-name="afii57683" unicode="&#x5e3;" horiz-adv-x="1086" 
d="M317 1085q85 -16 169.5 -33.5t166.5 -35.5q51 -11 100.5 -31.5t89.5 -55.5q40 -37 65 -93.5t25 -141.5v-1010h-173v986q0 52 -8 86.5t-27 57.5t-50.5 36t-79.5 23q-43 9 -85.5 18.5t-85.5 18.5l-112 -254l201 -121l-79 -130l-331 196z" />
    <glyph glyph-name="afii57684" unicode="&#x5e4;" horiz-adv-x="1077" 
d="M330 1085q21 -4 55 -10.5t75.5 -15t86 -18t86.5 -19.5t76.5 -20t56.5 -18q54 -21 88.5 -49.5t54.5 -65t27.5 -80.5t7.5 -95v-497q0 -23 -1.5 -44.5t-4.5 -44.5q-4 -23 -9.5 -49.5t-13.5 -58.5h-825v151h683v520q0 51 -6.5 84.5t-23.5 55t-45.5 34.5t-73.5 25
q-43 11 -92 22t-93 21l-114 -257l201 -119l-81 -132l-330 196z" />
    <glyph glyph-name="afii57685" unicode="&#x5e5;" horiz-adv-x="1095" 
d="M685 1076l291 -82q6 -68 0 -136q-31 -79 -64 -150t-75 -143q-31 -53 -60.5 -91t-61.5 -67.5t-68.5 -55t-79.5 -53.5l91 -216q20 -48 34.5 -80.5t26.5 -56.5q12 -25 23 -43.5t24 -35t28 -32.5t35 -36q-63 -62 -129 -120l-30 32q-46 52 -76 102.5t-55 107.5l-464 1085
l160 66l267 -628q31 20 58.5 41t52.5 47t48.5 59t46.5 76q24 45 50.5 101.5t45.5 113.5l-162 46z" />
    <glyph glyph-name="afii57686" unicode="&#x5e6;" horiz-adv-x="1109" 
d="M332 577q-64 74 -108.5 137.5t-71.5 119.5q-28 57 -42.5 101t-25.5 85q37 15 78.5 28.5t83.5 24.5q4 -12 7.5 -23.5t7.5 -23.5q10 -32 22 -64.5t32 -70.5t50.5 -84t77.5 -103q15 -19 28.5 -35t31 -36t42 -47.5t61.5 -69.5q31 19 53.5 41t41 48.5t33.5 59.5t31 74
q15 40 26.5 77t22.5 75l-142 43l39 137l273 -77l-7 -128q-14 -49 -33 -104.5t-37 -100.5q-20 -48 -40 -86t-44 -68.5t-53.5 -56t-66.5 -47.5l226 -265q-2 -26 -7 -58.5t-17 -79.5h-791v152h586z" />
    <glyph glyph-name="afii57687" unicode="&#x5e7;" horiz-adv-x="1156" 
d="M439 887q-44 0 -79 1t-67.5 5t-65.5 12.5t-72 23.5q13 36 25.5 72t25.5 74q42 -13 74 -20t62.5 -10.5t64 -4.5t78.5 -1h530q8 -28 12.5 -49t7.5 -38q5 -32 7 -65.5t2 -69.5v-141q0 -51 -4 -96t-15.5 -87t-32.5 -82t-56 -81q-73 -85 -143.5 -162.5t-142.5 -155.5l-132 120
l111 117q45 48 88.5 95.5t78.5 89.5q28 33 43 65.5t22 67t8.5 73.5t1.5 86q0 40 -1 80t-3 81h-428zM181 375q0 43 0.5 78t3 67.5t7.5 64t13 66.5q43 -6 85.5 -12.5t85.5 -12.5q-6 -36 -10.5 -64.5t-7 -57t-3.5 -60t-1 -73.5v-686h-173v690z" />
    <glyph glyph-name="afii57688" unicode="&#x5e8;" horiz-adv-x="1007" 
d="M395 887q-44 0 -79 1t-67.5 5t-65.5 12.5t-72 23.5q13 36 25.5 72t25.5 74q42 -13 74 -20t62.5 -10.5t64 -4.5t78.5 -1h94q63 0 124.5 -14t110.5 -53q48 -39 78.5 -108t30.5 -178v-686h-173v667q0 62 -9 104.5t-32 68t-62 36.5t-99 11h-109z" />
    <glyph glyph-name="afii57689" unicode="&#x5e9;" horiz-adv-x="1432" 
d="M200 548q-8 95 -11.5 159.5t-9 113.5t-16 89.5t-30.5 86.5q35 20 73.5 36t76.5 30q19 -36 31.5 -69.5t20.5 -72.5t13 -89t10 -119l42 -559q36 -3 69 -3q170 0 297 52t211 146t125.5 223.5t41.5 284.5q0 43 -3 85t-8 85q42 11 83 19.5t87 15.5q8 -43 12 -89t4 -96
q0 -219 -60 -385t-173 -277t-275 -167t-365 -56q-49 0 -99.5 2.5t-103.5 9.5zM806 1062q14 -48 14 -95q0 -29 -4.5 -58.5t-12.5 -59.5q-14 -50 -34 -99.5t-43 -100.5l-111 -243l-148 65l109 243q28 63 44.5 104t24.5 74q7 29 7 62q0 31 -6 76z" />
    <glyph glyph-name="afii57690" unicode="&#x5ea;" horiz-adv-x="1180" 
d="M284 149q-32 97 -49 185t-17 173q0 99 25 192.5t81 188.5q-26 1 -49.5 3.5t-47.5 7t-49 12t-54 18.5q13 36 25.5 72t25.5 74q42 -13 74 -20t62.5 -10.5t64 -4.5t78.5 -1h260q63 0 124.5 -14t111.5 -54q49 -38 79.5 -107t30.5 -178v-686h-173v667q0 62 -8 104.5t-30 68
t-60 36.5t-98 11h-196q-56 -77 -78.5 -171t-22.5 -194q0 -81 12.5 -159.5t32.5 -149.5l33 -107q-2 -26 -4 -51.5t-7 -54.5h-396v149h219z" />
    <glyph glyph-name="uni05F3" unicode="&#x5f3;" horiz-adv-x="557" 
d="M207 1015l-51 177q65 47 121 47q62 0 97.5 -33t36.5 -81.5t-18 -102.5q-28 -67 -143 -269h-122z" />
    <glyph glyph-name="uni05F4" unicode="&#x5f4;" horiz-adv-x="923" 
d="M207 1015l-51 177q65 47 121 47q62 0 97.5 -33t36.5 -81.5t-18 -102.5q-28 -67 -143 -269h-122zM571 1015l-51 177q65 47 121 47q62 0 97.5 -33t36.5 -81.5t-18 -102.5q-28 -67 -143 -269h-122z" />
    <glyph glyph-name="Wgrave" unicode="&#x1e80;" horiz-adv-x="1850" 
d="M1002 1571h-122q-115 202 -143 269q-19 54 -18 102.5t36.5 81.5t97.5 33q56 0 121 -47l-51 -177zM1777 1437l-173 -1437h-279l-400 1245l-400 -1245h-279l-173 1437h183l150 -1210h10l397 1210h224l397 -1210h10l150 1210h183z" />
    <glyph glyph-name="wgrave" unicode="&#x1e81;" horiz-adv-x="1491" 
d="M756 1211h-122q-115 202 -143 269q-19 54 -18 102.5t36.5 81.5t97.5 33q56 0 121 -47l-51 -177zM1112 0h-229l-125 483l-201 -483h-226l-266 1041h172l219 -916l242 600l-81 316h172l225 -916q108 250 151 376q52 153 52 263q0 96 -47 259q91 23 165 37q42 -103 53 -222
q3 -30 3 -61q0 -164 -92 -382q-25 -58 -56.5 -124.5t-74 -154t-56.5 -116.5z" />
    <glyph glyph-name="Wacute" unicode="&#x1e82;" horiz-adv-x="1850" 
d="M933 1833l-51 177q65 47 121 47q62 0 97.5 -33t36.5 -81.5t-18 -102.5q-28 -67 -143 -269h-122zM1777 1437l-173 -1437h-279l-400 1245l-400 -1245h-279l-173 1437h183l150 -1210h10l397 1210h224l397 -1210h10l150 1210h183z" />
    <glyph glyph-name="wacute" unicode="&#x1e83;" horiz-adv-x="1491" 
d="M735 1473l-51 177q65 47 121 47q62 0 97.5 -33t36.5 -81.5t-18 -102.5q-28 -67 -143 -269h-122zM1112 0h-229l-125 483l-201 -483h-226l-266 1041h172l219 -916l242 600l-81 316h172l225 -916q108 250 151 376q52 153 52 263q0 96 -47 259q91 23 165 37q42 -103 53 -222
q3 -30 3 -61q0 -164 -92 -382q-25 -58 -56.5 -124.5t-74 -154t-56.5 -116.5z" />
    <glyph glyph-name="Wdieresis" unicode="&#x1e84;" horiz-adv-x="1850" 
d="M705 1798q24 0 46 -9.5t38 -25.5t25.5 -38t9.5 -46q0 -26 -9.5 -48t-25.5 -38t-38 -25.5t-46 -9.5q-26 0 -48 9.5t-39 25.5q-36 33 -36 86q0 24 9.5 46t26.5 38t39 25.5t48 9.5zM1147 1798q25 0 47 -9.5t39 -25.5t26 -38t9 -46q0 -53 -35 -86q-17 -16 -39 -25.5t-47 -9.5
q-24 0 -45.5 9.5t-38.5 25.5t-27 38t-10 48q0 24 10 46t27 38t38.5 25.5t45.5 9.5zM1604 0h-279l-400 1245l-400 -1245h-279l-173 1437h183l150 -1210h10l397 1210h224l397 -1210h10l150 1210h183z" />
    <glyph glyph-name="wdieresis" unicode="&#x1e85;" horiz-adv-x="1491" 
d="M508 1428q24 0 46 -9.5t38 -25.5t25.5 -38t9.5 -46q0 -26 -9.5 -48t-25.5 -38t-38 -25.5t-46 -9.5q-26 0 -48 9.5t-39 25.5q-36 33 -36 86q0 24 9.5 46t26.5 38t39 25.5t48 9.5zM950 1428q25 0 47 -9.5t39 -25.5t26 -38t9 -46q0 -53 -35 -86q-17 -16 -39 -25.5t-47 -9.5
q-24 0 -45.5 9.5t-38.5 25.5t-27 38t-10 48q0 24 10 46t27 38t38.5 25.5t45.5 9.5zM883 0l-125 483l-201 -483h-226l-266 1041h172l219 -916l242 600l-81 316h172l225 -916q29 67 51.5 120.5t40.5 98.5t32.5 83.5t26.5 73.5q28 82 40 144t12 119q0 60 -12 120.5t-35 138.5
q38 10 79 19.5t86 17.5q27 -66 37.5 -119t15.5 -103q3 -30 3 -61q0 -97 -25 -189.5t-67 -192.5q-21 -49 -45 -100t-48.5 -102t-48.5 -100t-45 -93h-229z" />
    <glyph glyph-name="Ygrave" unicode="&#x1ef2;" horiz-adv-x="1357" 
d="M725 1571h-122q-115 202 -143 269q-19 54 -18 102.5t36.5 81.5t97.5 33q56 0 121 -47l-51 -177zM1078 1438h214l-520 -790v-648h-187v648l-520 790h214l399 -636z" />
    <glyph glyph-name="ygrave" unicode="&#x1ef3;" horiz-adv-x="1186" 
d="M533 1181q-15 26 -35.5 62t-40.5 73.5t-38.5 72.5t-28.5 61q-16 39 -18 78t11.5 69.5t43.5 50t79 19.5q28 0 55.5 -10t65.5 -37l-51 -177l79 -262h-122zM1010 1040v-1063q0 -99 -32.5 -171t-90 -119t-136.5 -69.5t-172 -22.5q-84 0 -169 14.5t-162 40.5q13 35 27 68
l28 66q24 -8 57.5 -17t71 -16.5t77 -12t76.5 -4.5q58 0 105 15.5t80 46.5t50.5 76.5t17.5 104.5v226h-19q-26 -47 -60 -88.5t-75 -72.5t-88.5 -48.5t-100.5 -17.5q-73 0 -127 16.5t-92.5 49t-63 81t-37.5 112.5q-11 57 -14 122t-3 134v549h172v-597q0 -65 6 -121.5t26.5 -98
t60.5 -65t109 -23.5q51 0 96 24.5t83 62.5t69.5 84t57.5 90v644h172z" />
    <glyph glyph-name="uni2000" unicode="&#x2000;" horiz-adv-x="1033" 
 />
    <glyph glyph-name="uni2001" unicode="&#x2001;" horiz-adv-x="2067" 
 />
    <glyph glyph-name="uni2002" unicode="&#x2002;" horiz-adv-x="1033" 
 />
    <glyph glyph-name="uni2003" unicode="&#x2003;" horiz-adv-x="2067" 
 />
    <glyph glyph-name="uni2004" unicode="&#x2004;" horiz-adv-x="689" 
 />
    <glyph glyph-name="uni2005" unicode="&#x2005;" horiz-adv-x="516" 
 />
    <glyph glyph-name="uni2006" unicode="&#x2006;" horiz-adv-x="344" 
 />
    <glyph glyph-name="uni2007" unicode="&#x2007;" horiz-adv-x="344" 
 />
    <glyph glyph-name="uni2008" unicode="&#x2008;" horiz-adv-x="258" 
 />
    <glyph glyph-name="uni2009" unicode="&#x2009;" horiz-adv-x="413" 
 />
    <glyph glyph-name="uni200A" unicode="&#x200a;" horiz-adv-x="114" 
 />
    <glyph glyph-name="afii299" unicode="&#x200e;" 
 />
    <glyph glyph-name="afii300" unicode="&#x200f;" 
 />
    <glyph glyph-name="uni2010" unicode="&#x2010;" horiz-adv-x="1164" 
d="M204 632h756v-148h-756v148z" />
    <glyph glyph-name="uni2011" unicode="&#x2011;" horiz-adv-x="1164" 
d="M204 632h756v-148h-756v148z" />
    <glyph glyph-name="figuredash" unicode="&#x2012;" horiz-adv-x="1164" 
d="M204 632h756v-148h-756v148z" />
    <glyph glyph-name="endash" unicode="&#x2013;" horiz-adv-x="1284" 
d="M164 632h956v-148h-956v148z" />
    <glyph glyph-name="emdash" unicode="&#x2014;" horiz-adv-x="1345" 
d="M40 632h1265v-148h-1265v148z" />
    <glyph glyph-name="quoteleft" unicode="&#x2018;" horiz-adv-x="557" 
d="M428 1461l-87 -289l56 -194q-42 -30 -72 -41t-61 -11q-54 0 -87 21t-48 55t-12.5 77t20.5 86q11 28 31 67t42.5 80t44.5 80.5t39 68.5h134z" />
    <glyph glyph-name="quoteright" unicode="&#x2019;" horiz-adv-x="557" 
d="M145 1409q42 30 72 41t61 11q54 0 87 -21t48 -55t12.5 -77t-20.5 -86q-11 -28 -31 -67t-42.5 -80t-45 -80.5t-38.5 -68.5h-134l87 289z" />
    <glyph glyph-name="quotesinglbase" unicode="&#x201a;" horiz-adv-x="574" 
d="M161 434q42 30 72 41t61 11q54 0 87 -21t48 -55t12.5 -77t-20.5 -86q-11 -28 -31 -67t-42.5 -80t-45 -80.5t-38.5 -68.5h-134l87 289z" />
    <glyph glyph-name="quotedblleft" unicode="&#x201c;" horiz-adv-x="923" 
d="M410 1461l-87 -289l56 -194q-42 -30 -72 -41t-61 -11q-54 0 -87 21t-48 55t-13 77t20 86q12 28 32 67t42.5 80t44.5 80.5t39 68.5h134zM810 1461l-87 -289l57 -194q-42 -30 -72.5 -41t-61.5 -11q-55 0 -88.5 20.5t-48 54.5t-11.5 77t21 87q12 28 31.5 67t42 80t44.5 80.5
t39 68.5h134z" />
    <glyph glyph-name="quotedblright" unicode="&#x201d;" horiz-adv-x="923" 
d="M126 1409q42 30 72.5 41t61.5 11q55 0 88.5 -21t48 -54.5t11.5 -76.5t-21 -87q-12 -28 -31.5 -67t-42 -80t-45 -80.5t-38.5 -68.5h-134l87 289zM527 1409q42 30 72 41t61 11q54 0 87 -21t48 -55t13 -77t-20 -86q-12 -28 -32 -67t-42.5 -80t-45 -80.5t-38.5 -68.5h-134
l87 289z" />
    <glyph glyph-name="quotedblbase" unicode="&#x201e;" horiz-adv-x="928" 
d="M135 434q42 30 72.5 41t61.5 11q55 0 88.5 -21t48 -54.5t11.5 -76.5t-21 -87q-12 -28 -31.5 -67t-42 -80t-45 -80.5t-38.5 -68.5h-134l87 289zM536 434q42 30 72 41t61 11q54 0 87 -21t48 -55t13 -77t-20 -86q-12 -28 -32 -67t-42.5 -80t-45 -80.5t-38.5 -68.5h-134
l87 289z" />
    <glyph glyph-name="dagger" unicode="&#x2020;" horiz-adv-x="600" 
 />
    <glyph glyph-name="daggerdbl" unicode="&#x2021;" horiz-adv-x="600" 
 />
    <glyph glyph-name="bullet" unicode="&#x2022;" horiz-adv-x="646" 
d="M323 771q40 0 73.5 -14t56.5 -38.5t36 -57t13 -69.5t-14 -69.5t-38.5 -57t-57 -38.5t-69.5 -14t-69.5 14t-57 38.5t-38.5 57t-14 69.5q0 39 14.5 72t39.5 57t57 37t68 13z" />
    <glyph glyph-name="ellipsis" unicode="&#x2026;" horiz-adv-x="1850" 
d="M323 224q27 0 49.5 -9.5t38.5 -26t25 -39t9 -47.5t-9.5 -47.5t-26 -39t-39 -26t-47.5 -9.5t-47.5 9.5t-39 26t-26 39t-9.5 47.5q0 27 10 49t26.5 38.5t39 25.5t46.5 9zM925 224q24 0 46.5 -9.5t39.5 -26t27 -39t10 -47.5q0 -24 -10 -46.5t-26.5 -39t-39 -26.5t-47.5 -10
q-24 0 -46 9.5t-39 26t-27 39t-10 47.5t10 47.5t26.5 39t39 26t46.5 9.5zM1527 224q27 0 49.5 -9.5t38.5 -26t25 -39t9 -47.5t-9.5 -47.5t-26 -39t-39 -26t-47.5 -9.5t-47.5 9.5t-39 26t-26 39t-9.5 47.5q0 27 10 49t26.5 38.5t39 25.5t46.5 9z" />
    <glyph glyph-name="uni202F" unicode="&#x202f;" horiz-adv-x="411" 
 />
    <glyph glyph-name="perthousand" unicode="&#x2030;" horiz-adv-x="1802" 
d="M354 1326q43 0 83.5 -13t70.5 -46q31 -32 50.5 -92t19.5 -144q0 -56 -8.5 -93t-23.5 -69q-16 -32 -37 -53.5t-46 -34.5t-52.5 -18t-56.5 -5q-44 0 -84 12.5t-72 44.5q-31 32 -50.5 87.5t-19.5 138.5q0 84 19.5 139t50.5 87q32 33 72 46t84 13zM354 1245
q-32 0 -56.5 -11.5t-40.5 -37.5t-25 -64t-9 -91q0 -54 9 -91.5t25 -63.5q16 -25 40.5 -37t56.5 -12q30 0 54.5 12t40.5 37q16 26 25 63.5t9 91.5q0 53 -9 91t-25 64t-40.5 37.5t-54.5 11.5zM1059 1065v-125l-901 -674v125zM865 581q43 0 83.5 -13t70.5 -46q31 -32 50.5 -87
t19.5 -139q0 -56 -8.5 -98t-23.5 -74q-16 -32 -37 -53.5t-46 -34.5t-52.5 -18t-56.5 -5q-44 0 -84 12.5t-72 44.5q-31 32 -50.5 87.5t-19.5 138.5q0 84 19.5 139t50.5 87q32 33 72 46t84 13zM1450 581q43 0 83.5 -13t70.5 -46q31 -32 50.5 -87t19.5 -139q0 -56 -8.5 -98
t-23.5 -74q-16 -32 -37 -53.5t-46 -34.5t-52.5 -18t-56.5 -5q-44 0 -84 12.5t-72 44.5q-31 32 -50.5 87.5t-19.5 138.5q0 84 19.5 139t50.5 87q32 33 72 46t84 13zM865 500q-32 0 -56.5 -11.5t-40.5 -37.5t-25 -64t-9 -91q0 -54 9 -91.5t25 -63.5q16 -25 40.5 -37t56.5 -12
q30 0 54.5 12t40.5 37q16 26 25 63.5t9 91.5q0 53 -9 91t-25 64t-40.5 37.5t-54.5 11.5zM1450 500q-32 0 -56.5 -11.5t-40.5 -37.5t-25 -64t-9 -91q0 -54 9 -91.5t25 -63.5q16 -25 40.5 -37t56.5 -12q30 0 54.5 12t40.5 37q16 26 25 63.5t9 91.5q0 53 -9 91t-25 64
t-40.5 37.5t-54.5 11.5z" />
    <glyph glyph-name="guilsinglleft" unicode="&#x2039;" horiz-adv-x="914" 
d="M170 518l443 441l100 -99l-340 -342l341 -344l-101 -99z" />
    <glyph glyph-name="guilsinglright" unicode="&#x203a;" horiz-adv-x="914" 
d="M201 860l100 99l443 -441l-443 -443l-101 99l341 344z" />
    <glyph glyph-name="fraction" unicode="&#x2044;" horiz-adv-x="1673" 
d="M1414 1438h159l-1314 -1438h-159z" />
    <glyph glyph-name="uni205F" unicode="&#x205f;" horiz-adv-x="514" 
 />
    <glyph glyph-name="afii57636" unicode="&#x20aa;" horiz-adv-x="1681" 
d="M164 559q0 49 1.5 90t7.5 79.5t16.5 78t28.5 84.5q-26 3 -56.5 9.5t-76.5 18.5q9 37 18.5 73.5t23.5 74.5q45 -9 74.5 -14.5t53.5 -8.5t46.5 -4t52.5 -1h403q63 0 124.5 -14t110.5 -53q49 -38 79 -105t30 -175q0 -44 -2 -78.5t-5.5 -66t-9.5 -63t-15 -68.5q-43 2 -84 8
t-79 17q5 32 9 60t7 55t4.5 54t1.5 57q0 64 -9 106t-32 67.5t-62 36t-98 10.5h-339q-20 -42 -30.5 -83.5t-15 -81.5t-5 -78.5t-0.5 -75.5v-568h-173v559zM709 152q18 -2 40 -2.5t39 -0.5q145 0 258.5 46t192 132.5t120 211t41.5 282.5q0 47 -3.5 96.5t-9.5 100.5
q42 14 80.5 22.5t84.5 16.5q9 -61 14 -119t5 -116q0 -203 -56.5 -358t-161.5 -260t-254.5 -158.5t-335.5 -53.5q-49 0 -104.5 2.5t-108.5 9.5v625h159v-477z" />
    <glyph glyph-name="Euro" unicode="&#x20ac;" horiz-adv-x="1073" 
d="M922 158l31 -139q-178 -43 -307 -43q-192 0 -269 101q-68 89 -68 295v71h-189v146h188v238h-188v146h188v71q0 206 68 295q77 101 269 101q129 0 307 -43l-31 -139q-152 33 -243 33q-130 0 -165 -53q-17 -25 -21.5 -62.5t-4.5 -107.5v-95h263v-146h-262v-238h262v-146
h-262v-95q0 -70 4.5 -107.5t21.5 -62.5q35 -53 165 -53q91 0 243 33z" />
    <glyph glyph-name="trademark" unicode="&#x2122;" horiz-adv-x="1634" 
d="M100 1439h545v-89h-217v-603h-110v603h-218v89zM1466 1438l88 -691h-106l-71 522l-182 -531v-1h-134v3l-1 -2l-184 531l-69 -522h-107l87 691h131l209 -601l208 601h131z" />
    <glyph glyph-name="uniE000" unicode="&#xe000;" horiz-adv-x="1065" 
d="M0 1065h1065v-1065h-1065v1065z" />
    <glyph glyph-name="uniFB2A" unicode="&#xfb2a;" horiz-adv-x="1432" 
d="M1208 1365q39 0 65.5 -26t26.5 -64q0 -39 -26.5 -66t-65.5 -27q-38 0 -64 27.5t-26 65.5q0 37 26 63.5t64 26.5zM200 548q-8 95 -11.5 159.5t-9 113.5t-16 89.5t-30.5 86.5q35 20 73.5 36t76.5 30q19 -36 31.5 -69.5t20.5 -72.5t13 -89t10 -119l42 -559q36 -3 69 -3
q170 0 297 52t211 146t125.5 223.5t41.5 284.5q0 43 -3 85t-8 85q42 11 83 19.5t87 15.5q8 -43 12 -89t4 -96q0 -219 -60 -385t-173 -277t-275 -167t-365 -56q-49 0 -99.5 2.5t-103.5 9.5zM806 1062q14 -48 14 -95q0 -29 -4.5 -58.5t-12.5 -59.5q-14 -50 -34 -99.5
t-43 -100.5l-111 -243l-148 65l109 243q28 63 44.5 104t24.5 74q7 29 7 62q0 31 -6 76z" />
    <glyph glyph-name="uniFB2B" unicode="&#xfb2b;" horiz-adv-x="1432" 
d="M81 1365q39 0 65.5 -26t26.5 -64q0 -39 -26.5 -66t-65.5 -27q-38 0 -64 27.5t-26 65.5q0 37 26 63.5t64 26.5zM200 548q-8 95 -11.5 159.5t-9 113.5t-16 89.5t-30.5 86.5q35 20 73.5 36t76.5 30q19 -36 31.5 -69.5t20.5 -72.5t13 -89t10 -119l42 -559q36 -3 69 -3
q170 0 297 52t211 146t125.5 223.5t41.5 284.5q0 43 -3 85t-8 85q42 11 83 19.5t87 15.5q8 -43 12 -89t4 -96q0 -219 -60 -385t-173 -277t-275 -167t-365 -56q-49 0 -99.5 2.5t-103.5 9.5zM806 1062q14 -48 14 -95q0 -29 -4.5 -58.5t-12.5 -59.5q-14 -50 -34 -99.5
t-43 -100.5l-111 -243l-148 65l109 243q28 63 44.5 104t24.5 74q7 29 7 62q0 31 -6 76z" />
    <glyph glyph-name="uniFB2C" unicode="&#xfb2c;" horiz-adv-x="1432" 
d="M1208 1365q39 0 65.5 -26t26.5 -64q0 -39 -26.5 -66t-65.5 -27q-38 0 -64 27.5t-26 65.5q0 37 26 63.5t64 26.5zM200 548q-8 95 -11.5 159.5t-9 113.5t-16 89.5t-30.5 86.5q35 20 73.5 36t76.5 30q19 -36 31.5 -69.5t20.5 -72.5t13 -89t10 -119l42 -559q36 -3 69 -3
q170 0 297 52t211 146t125.5 223.5t41.5 284.5q0 43 -3 85t-8 85q42 11 83 19.5t87 15.5q8 -43 12 -89t4 -96q0 -219 -60 -385t-173 -277t-275 -167t-365 -56q-49 0 -99.5 2.5t-103.5 9.5zM806 1062q14 -48 14 -95q0 -29 -4.5 -58.5t-12.5 -59.5q-14 -50 -34 -99.5
t-43 -100.5l-111 -243l-148 65l109 243q28 63 44.5 104t24.5 74q7 29 7 62q0 31 -6 76zM892 658q39 0 65.5 -26t26.5 -64q0 -18 -7.5 -35t-20 -29.5t-29 -20t-35.5 -7.5t-35.5 7.5t-28.5 20t-19 29.5t-7 35q0 37 26 63.5t64 26.5z" />
    <glyph glyph-name="uniFB2D" unicode="&#xfb2d;" horiz-adv-x="1432" 
d="M81 1365q39 0 65.5 -26t26.5 -64q0 -39 -26.5 -66t-65.5 -27q-38 0 -64 27.5t-26 65.5q0 37 26 63.5t64 26.5zM200 548q-8 95 -11.5 159.5t-9 113.5t-16 89.5t-30.5 86.5q35 20 73.5 36t76.5 30q19 -36 31.5 -69.5t20.5 -72.5t13 -89t10 -119l42 -559q36 -3 69 -3
q170 0 297 52t211 146t125.5 223.5t41.5 284.5q0 43 -3 85t-8 85q42 11 83 19.5t87 15.5q8 -43 12 -89t4 -96q0 -219 -60 -385t-173 -277t-275 -167t-365 -56q-49 0 -99.5 2.5t-103.5 9.5zM806 1062q14 -48 14 -95q0 -29 -4.5 -58.5t-12.5 -59.5q-14 -50 -34 -99.5
t-43 -100.5l-111 -243l-148 65l109 243q28 63 44.5 104t24.5 74q7 29 7 62q0 31 -6 76zM892 658q39 0 65.5 -26t26.5 -64q0 -18 -7.5 -35t-20 -29.5t-29 -20t-35.5 -7.5t-35.5 7.5t-28.5 20t-19 29.5t-7 35q0 37 26 63.5t64 26.5z" />
    <glyph glyph-name="uniFB2E" unicode="&#xfb2e;" horiz-adv-x="1151" 
d="M117 -9q0 28 0.5 64t1 77.5t1.5 85.5l2 88q2 75 11 133.5t26 106.5t42.5 89t60.5 81q-35 50 -59.5 91t-39.5 75q-16 35 -27 71t-19 67q36 16 78 29.5t84 23.5q4 -12 7.5 -23.5t7.5 -23.5q10 -32 22.5 -64t32.5 -70t50.5 -84t76.5 -104q16 -21 31.5 -38.5t36.5 -41.5
t52 -59.5t80 -91.5l4 -5q36 26 59 55t39.5 62.5t29 72t25.5 82.5q11 39 21.5 78.5t20.5 78.5l-146 28l27 140l280 -49l5 -129q-10 -48 -26 -105t-30 -106q-18 -63 -35.5 -109t-39.5 -83t-52.5 -69t-75.5 -66l239 -281l-122 -108l-534 617q-31 -38 -45.5 -88t-20.5 -105.5
t-6 -115t-1 -117.5q-1 -32 -1 -69.5t-1 -90.5h-173zM792 -152v-118h-469v118h469z" />
    <glyph glyph-name="uniFB2F" unicode="&#xfb2f;" horiz-adv-x="1151" 
d="M117 -9q0 28 0.5 64t1 77.5t1.5 85.5l2 88q2 75 11 133.5t26 106.5t42.5 89t60.5 81q-35 50 -59.5 91t-39.5 75q-16 35 -27 71t-19 67q36 16 78 29.5t84 23.5q4 -12 7.5 -23.5t7.5 -23.5q10 -32 22.5 -64t32.5 -70t50.5 -84t76.5 -104q16 -21 31.5 -38.5t36.5 -41.5
t52 -59.5t80 -91.5l4 -5q36 26 59 55t39.5 62.5t29 72t25.5 82.5q11 39 21.5 78.5t20.5 78.5l-146 28l27 140l280 -49l5 -129q-10 -48 -26 -105t-30 -106q-18 -63 -35.5 -109t-39.5 -83t-52.5 -69t-75.5 -66l239 -281l-122 -108l-534 617q-31 -38 -45.5 -88t-20.5 -105.5
t-6 -115t-1 -117.5q-1 -32 -1 -69.5t-1 -90.5h-173zM792 -152v-118h-178l20 -250h-157l20 250h-174v118h469z" />
    <glyph glyph-name="uniFB30" unicode="&#xfb30;" horiz-adv-x="1151" 
d="M117 -9q0 28 0.5 64t1 77.5t1.5 85.5l2 88q2 75 11 133.5t26 106.5t42.5 89t60.5 81q-35 50 -59.5 91t-39.5 75q-16 35 -27 71t-19 67q36 16 78 29.5t84 23.5q4 -12 7.5 -23.5t7.5 -23.5q10 -32 22.5 -64t32.5 -70t50.5 -84t76.5 -104q16 -21 31.5 -38.5t36.5 -41.5
t52 -59.5t80 -91.5l4 -5q36 26 59 55t39.5 62.5t29 72t25.5 82.5q11 39 21.5 78.5t20.5 78.5l-146 28l27 140l280 -49l5 -129q-10 -48 -26 -105t-30 -106q-18 -63 -35.5 -109t-39.5 -83t-52.5 -69t-75.5 -66l239 -281l-122 -108l-534 617q-31 -38 -45.5 -88t-20.5 -105.5
t-6 -115t-1 -117.5q-1 -32 -1 -69.5t-1 -90.5h-173zM651 850q39 0 65.5 -26t26.5 -64q0 -18 -7.5 -35t-20 -29.5t-29 -20t-35.5 -7.5t-35.5 7.5t-28.5 20t-19 29.5t-7 35q0 37 26 63.5t64 26.5z" />
    <glyph glyph-name="uniFB31" unicode="&#xfb31;" horiz-adv-x="1121" 
d="M444 887q-44 0 -79 1t-67.5 5t-65.5 12.5t-72 23.5q13 36 25.5 72t25.5 74q42 -13 74 -20t62.5 -10.5t64 -4.5t78.5 -1h29q63 0 124 -14t110 -53q48 -38 78 -105t30 -175v-540h184v-152h-947v152h590v515q0 62 -9 104.5t-31.5 68t-61.5 36.5t-99 11h-43zM396 613
q39 0 65.5 -26t26.5 -64q0 -18 -7.5 -35t-20 -29.5t-29 -20t-35.5 -7.5t-35.5 7.5t-28.5 20t-19 29.5t-7 35q0 37 26 63.5t64 26.5z" />
    <glyph glyph-name="uniFB32" unicode="&#xfb32;" horiz-adv-x="833" 
d="M614 1039v-537q0 -48 14 -91.5t31 -88.5q29 -78 54.5 -157.5t45.5 -164.5h-161q-13 52 -30.5 109.5t-37.5 108.5l-25 64q-32 -37 -53.5 -62.5t-38.5 -44t-31.5 -34t-31.5 -32.5q-53 -54 -115 -89t-143 -47q-10 38 -18.5 76.5t-15.5 76.5q34 9 62 18t53 22.5t47.5 32
t46.5 45.5l180 197v446h-228v152h395zM244 648q39 0 65.5 -26t26.5 -64q0 -18 -7.5 -35t-20 -29.5t-29 -20t-35.5 -7.5t-35.5 7.5t-28.5 20t-19 29.5t-7 35q0 37 26 63.5t64 26.5z" />
    <glyph glyph-name="uniFB33" unicode="&#xfb33;" horiz-adv-x="1089" 
d="M381 887q-44 0 -79 1t-67.5 5t-65.5 12.5t-72 23.5q13 36 25.5 72t25.5 74q42 -13 74 -20t62.5 -10.5t64 -4.5t78.5 -1h572v-152h-202v-887h-173v887h-243zM384 613q39 0 65.5 -26t26.5 -64q0 -18 -7.5 -35t-20 -29.5t-29 -20t-35.5 -7.5t-35.5 7.5t-28.5 20t-19 29.5
t-7 35q0 37 26 63.5t64 26.5z" />
    <glyph glyph-name="uniFB34" unicode="&#xfb34;" horiz-adv-x="1128" 
d="M425 887q-44 0 -79 1t-67.5 5t-65.5 12.5t-72 23.5q13 36 25.5 72t25.5 74q42 -13 74 -20t62.5 -10.5t64 -4.5t78.5 -1h195q63 0 124 -14t110 -54q48 -38 78 -107t30 -178v-686h-173v667q0 63 -8.5 105t-31 67.5t-62 36.5t-100.5 11h-208zM584 690q39 0 65.5 -26
t26.5 -64q0 -18 -7.5 -35t-20 -29.5t-29 -20t-35.5 -7.5t-35.5 7.5t-28.5 20t-19 29.5t-7 35q0 37 26 63.5t64 26.5zM157 314q0 45 0.5 79t3.5 65t8 62.5t14 69.5q42 -6 84.5 -12.5t84.5 -12.5q-6 -36 -10.5 -64.5t-7 -57t-3.5 -60t-1 -73.5v-310h-173v314z" />
    <glyph glyph-name="uniFB35" unicode="&#xfb35;" horiz-adv-x="655" 
d="M479 1039v-1039h-173v887h-175v152h348zM100 613q39 0 65.5 -26t26.5 -64q0 -18 -7.5 -35t-20 -29.5t-29 -20t-35.5 -7.5t-35.5 7.5t-28.5 20t-19 29.5t-7 35q0 37 26 63.5t64 26.5z" />
    <glyph glyph-name="uniFB36" unicode="&#xfb36;" horiz-adv-x="836" 
d="M317 887q-30 1 -57 3t-53.5 6.5t-54 12.5t-59.5 20q13 36 25.5 72t25.5 74q42 -13 74 -20t62.5 -10.5t64 -4.5t78.5 -1h328v-152h-260l141 -887h-177zM165 613q39 0 65.5 -26t26.5 -64q0 -18 -7.5 -35t-20 -29.5t-29 -20t-35.5 -7.5t-35.5 7.5t-28.5 20t-19 29.5t-7 35
q0 37 26 63.5t64 26.5z" />
    <glyph glyph-name="uniFB38" unicode="&#xfb38;" horiz-adv-x="1250" 
d="M184 545q-6 95 -8.5 159.5t-7 113.5t-14.5 89.5t-29 86.5q36 20 74.5 36t76.5 30q19 -36 31 -69.5t19 -72.5t11 -89t8 -119l31 -564q14 -1 28 -1.5t28 -0.5q114 0 211 35t168.5 109t112 188t40.5 273q0 36 -2.5 66.5t-7.5 52.5q-48 12 -92.5 20t-96.5 13
q-12 -35 -22.5 -63.5t-20 -56.5t-19 -56.5t-19.5 -62.5l-139 46q24 88 53.5 174.5t61.5 173.5q125 -8 232.5 -28.5t207.5 -42.5q14 -56 19.5 -116t5.5 -133q0 -175 -47.5 -307.5t-132.5 -225.5q-59 -63 -123.5 -104t-134 -65t-143.5 -33t-150 -9q-48 0 -92.5 2.5t-84.5 7.5z
M601 517q39 0 65.5 -26t26.5 -64q0 -18 -7.5 -35t-20 -29.5t-29 -20t-35.5 -7.5t-35.5 7.5t-28.5 20t-19 29.5t-7 35q0 37 26 63.5t64 26.5z" />
    <glyph glyph-name="uniFB39" unicode="&#xfb39;" horiz-adv-x="660" 
d="M515 1039v-324q0 -54 -1 -90t-4 -66t-8 -58t-13 -62l-169 25q5 30 9 55t7 53t4.5 63t1.5 84v168h-229v152h402zM122 713q39 0 65.5 -26t26.5 -64q0 -18 -7.5 -35t-20 -29.5t-29 -20t-35.5 -7.5t-35.5 7.5t-28.5 20t-19 29.5t-7 35q0 37 26 63.5t64 26.5z" />
    <glyph glyph-name="uniFB3A" unicode="&#xfb3a;" horiz-adv-x="990" 
d="M375 887q-44 0 -79 1t-67.5 5t-65.5 12.5t-72 23.5q13 36 25.5 72t25.5 74q42 -13 74 -20t62.5 -10.5t64 -4.5t78.5 -1h380q9 -30 14.5 -52.5t8.5 -39.5q3 -18 4 -33t1 -31v-1198h-173v1202h-281zM388 613q39 0 65.5 -26t26.5 -64q0 -18 -7.5 -35t-20 -29.5t-29 -20
t-35.5 -7.5t-35.5 7.5t-28.5 20t-19 29.5t-7 35q0 37 26 63.5t64 26.5z" />
    <glyph glyph-name="uniFB3B" unicode="&#xfb3b;" horiz-adv-x="1025" 
d="M432 887q-44 0 -79 1t-67.5 5t-65.5 12.5t-72 23.5q13 36 25.5 72t25.5 74q42 -13 74 -20t62.5 -10.5t64 -4.5t78.5 -1h60q61 0 120.5 -15.5t107.5 -55.5t79.5 -108t36.5 -174q3 -56 4 -111.5t2 -114.5t1 -124v-138q0 -24 -1 -43.5t-4 -41.5t-8.5 -48.5t-14.5 -64.5h-763
v152h621q0 123 -2 254.5t-7 260.5q-2 63 -11.5 105t-31.5 67.5t-60.5 36.5t-99.5 11h-75zM411 613q39 0 65.5 -26t26.5 -64q0 -18 -7.5 -35t-20 -29.5t-29 -20t-35.5 -7.5t-35.5 7.5t-28.5 20t-19 29.5t-7 35q0 37 26 63.5t64 26.5z" />
    <glyph glyph-name="uniFB3C" unicode="&#xfb3c;" horiz-adv-x="1002" 
d="M293 1323v-284h577q9 -33 14 -55t8 -39q2 -18 2.5 -33.5t0.5 -33.5v-216q0 -118 -47.5 -223t-141.5 -210l-245 -269l-122 109l229 256q33 38 61.5 74t49 75t32 83.5t11.5 98.5v231h-602v436h173zM405 698q39 0 65.5 -26t26.5 -64q0 -18 -7.5 -35t-20 -29.5t-29 -20
t-35.5 -7.5t-35.5 7.5t-28.5 20t-19 29.5t-7 35q0 37 26 63.5t64 26.5z" />
    <glyph glyph-name="uniFB3E" unicode="&#xfb3e;" horiz-adv-x="1194" 
d="M105 -9q16 99 28.5 172.5t22.5 130.5t17.5 102.5t15 89t14.5 89.5t16 104q5 50 1.5 84.5t-17 67t-37.5 69t-59 91.5q20 12 36 22t33 20t36.5 21.5t47.5 27.5q23 -32 39.5 -56t29.5 -44.5t23 -40.5t20 -42q42 39 80.5 69.5t78.5 51t85 31.5t99 11q132 0 220 -68.5
t117 -210.5q8 -40 11.5 -99.5t5 -123t1 -124t-0.5 -103.5q-1 -69 -3 -132t-5 -105q-2 -22 -4 -46t-6 -50h-493v152h335q1 17 2.5 37t2 53.5t1 87t0.5 137.5q0 38 -1 77.5t-3 76t-5.5 68.5t-8.5 55q-9 37 -23 67.5t-36 51.5t-52 32.5t-71 11.5q-44 0 -84.5 -14t-77.5 -37.5
t-71 -54.5t-65 -64q-18 -111 -31.5 -196t-24.5 -152.5t-19.5 -120t-16.5 -98.5t-15 -89t-15 -90h-174zM626 613q39 0 65.5 -26t26.5 -64q0 -18 -7.5 -35t-20 -29.5t-29 -20t-35.5 -7.5t-35.5 7.5t-28.5 20t-19 29.5t-7 35q0 37 26 63.5t64 26.5z" />
    <glyph glyph-name="uniFB40" unicode="&#xfb40;" horiz-adv-x="794" 
d="M583 1039l4 -34q3 -34 9.5 -92.5t14.5 -137t17.5 -169.5t19.5 -189.5t19 -195.5q4 -44 6 -72t2 -50.5t-2 -44.5t-6 -54h-596v152h433l-77 735h-244v152h400zM240 613q39 0 65.5 -26t26.5 -64q0 -18 -7.5 -35t-20 -29.5t-29 -20t-35.5 -7.5t-35.5 7.5t-28.5 20t-19 29.5
t-7 35q0 37 26 63.5t64 26.5z" />
    <glyph glyph-name="uniFB41" unicode="&#xfb41;" horiz-adv-x="1149" 
d="M692 1039q91 0 156.5 -22.5t108.5 -70.5q29 -33 47 -79.5t28 -98.5t13.5 -106.5t3.5 -105.5q0 -78 -9 -160q-12 -100 -46.5 -178t-89.5 -131.5t-129.5 -81.5t-165.5 -28q-117 0 -199.5 38.5t-134.5 106t-76 159t-24 197.5q0 60 7 122.5t27 131.5q13 42 29.5 81.5
t38.5 75.5q-45 3 -86 11.5t-92 28.5q13 36 25.5 72t25.5 74q42 -13 74 -20t62.5 -10.5t64 -4.5t78.5 -1h263zM449 887q-45 -67 -68 -144t-28 -153q-2 -30 -3.5 -60t-1.5 -60q0 -68 10.5 -129t41.5 -107q32 -50 84 -77.5t122 -27.5q52 0 96 16.5t77.5 48.5t55.5 79t30 107
q5 45 8 83.5t3 74.5q0 53 -4.5 101t-12.5 99q-6 42 -18 70.5t-34 46t-57 25t-87 7.5h-214zM607 613q39 0 65.5 -26t26.5 -64q0 -18 -7.5 -35t-20 -29.5t-29 -20t-35.5 -7.5t-35.5 7.5t-28.5 20t-19 29.5t-7 35q0 37 26 63.5t64 26.5z" />
    <glyph glyph-name="uniFB43" unicode="&#xfb43;" horiz-adv-x="1086" 
d="M317 1085q85 -16 169.5 -33.5t166.5 -35.5q51 -11 100.5 -31.5t89.5 -55.5q40 -37 65 -93.5t25 -141.5v-1010h-173v986q0 52 -8 86.5t-27 57.5t-50.5 36t-79.5 23q-43 9 -85.5 18.5t-85.5 18.5l-112 -254l201 -121l-79 -130l-331 196zM560 796q39 0 65.5 -26t26.5 -64
q0 -18 -7.5 -35t-20 -29.5t-29 -20t-35.5 -7.5t-35.5 7.5t-28.5 20t-19 29.5t-7 35q0 37 26 63.5t64 26.5z" />
    <glyph glyph-name="uniFB44" unicode="&#xfb44;" horiz-adv-x="1077" 
d="M330 1085q21 -4 55 -10.5t75.5 -15t86 -18t86.5 -19.5t76.5 -20t56.5 -18q54 -21 88.5 -49.5t54.5 -65t27.5 -80.5t7.5 -95v-497q0 -23 -1.5 -44.5t-4.5 -44.5q-4 -23 -9.5 -49.5t-13.5 -58.5h-825v151h683v520q0 51 -6.5 84.5t-23.5 55t-45.5 34.5t-73.5 25
q-43 11 -92 22t-93 21l-114 -257l201 -119l-81 -132l-330 196zM566 791q39 0 65.5 -26t26.5 -64q0 -18 -7.5 -35t-20 -29.5t-29 -20t-35.5 -7.5t-35.5 7.5t-28.5 20t-19 29.5t-7 35q0 37 26 63.5t64 26.5z" />
    <glyph glyph-name="uniFB46" unicode="&#xfb46;" horiz-adv-x="1109" 
d="M332 577q-64 74 -108.5 137.5t-71.5 119.5q-28 57 -42.5 101t-25.5 85q37 15 78.5 28.5t83.5 24.5q4 -12 7.5 -23.5t7.5 -23.5q10 -32 22 -64.5t32 -70.5t50.5 -84t77.5 -103q15 -19 28.5 -35t31 -36t42 -47.5t61.5 -69.5q31 19 53.5 41t41 48.5t33.5 59.5t31 74
q15 40 26.5 77t22.5 75l-142 43l39 137l273 -77l-7 -128q-14 -49 -33 -104.5t-37 -100.5q-20 -48 -40 -86t-44 -68.5t-53.5 -56t-66.5 -47.5l226 -265q-2 -26 -7 -58.5t-17 -79.5h-791v152h586zM591 850q39 0 65.5 -26t26.5 -64q0 -18 -7.5 -35t-20 -29.5t-29 -20
t-35.5 -7.5t-35.5 7.5t-28.5 20t-19 29.5t-7 35q0 37 26 63.5t64 26.5z" />
    <glyph glyph-name="uniFB47" unicode="&#xfb47;" horiz-adv-x="1156" 
d="M439 887q-44 0 -79 1t-67.5 5t-65.5 12.5t-72 23.5q13 36 25.5 72t25.5 74q42 -13 74 -20t62.5 -10.5t64 -4.5t78.5 -1h530q8 -28 12.5 -49t7.5 -38q5 -32 7 -65.5t2 -69.5v-141q0 -51 -4 -96t-15.5 -87t-32.5 -82t-56 -81q-73 -85 -143.5 -162.5t-142.5 -155.5l-132 120
l111 117q45 48 88.5 95.5t78.5 89.5q28 33 43 65.5t22 67t8.5 73.5t1.5 86q0 40 -1 80t-3 81h-428zM606 719q39 0 65.5 -26t26.5 -64q0 -18 -7.5 -35t-20 -29.5t-29 -20t-35.5 -7.5t-35.5 7.5t-28.5 20t-19 29.5t-7 35q0 37 26 63.5t64 26.5zM181 375q0 43 0.5 78t3 67.5
t7.5 64t13 66.5q43 -6 85.5 -12.5t85.5 -12.5q-6 -36 -10.5 -64.5t-7 -57t-3.5 -60t-1 -73.5v-686h-173v690z" />
    <glyph glyph-name="uniFB48" unicode="&#xfb48;" horiz-adv-x="1007" 
d="M395 887q-44 0 -79 1t-67.5 5t-65.5 12.5t-72 23.5q13 36 25.5 72t25.5 74q42 -13 74 -20t62.5 -10.5t64 -4.5t78.5 -1h94q63 0 124.5 -14t110.5 -53q48 -39 78.5 -108t30.5 -178v-686h-173v667q0 62 -9 104.5t-32 68t-62 36.5t-99 11h-109zM408 613q39 0 65.5 -26
t26.5 -64q0 -18 -7.5 -35t-20 -29.5t-29 -20t-35.5 -7.5t-35.5 7.5t-28.5 20t-19 29.5t-7 35q0 37 26 63.5t64 26.5z" />
    <glyph glyph-name="uniFB49" unicode="&#xfb49;" horiz-adv-x="1432" 
d="M200 548q-8 95 -11.5 159.5t-9 113.5t-16 89.5t-30.5 86.5q35 20 73.5 36t76.5 30q19 -36 31.5 -69.5t20.5 -72.5t13 -89t10 -119l42 -559q36 -3 69 -3q170 0 297 52t211 146t125.5 223.5t41.5 284.5q0 43 -3 85t-8 85q42 11 83 19.5t87 15.5q8 -43 12 -89t4 -96
q0 -219 -60 -385t-173 -277t-275 -167t-365 -56q-49 0 -99.5 2.5t-103.5 9.5zM806 1062q14 -48 14 -95q0 -29 -4.5 -58.5t-12.5 -59.5q-14 -50 -34 -99.5t-43 -100.5l-111 -243l-148 65l109 243q28 63 44.5 104t24.5 74q7 29 7 62q0 31 -6 76zM892 658q39 0 65.5 -26
t26.5 -64q0 -18 -7.5 -35t-20 -29.5t-29 -20t-35.5 -7.5t-35.5 7.5t-28.5 20t-19 29.5t-7 35q0 37 26 63.5t64 26.5z" />
    <glyph glyph-name="uniFB4A" unicode="&#xfb4a;" horiz-adv-x="1180" 
d="M284 149q-32 97 -49 185t-17 173q0 99 25 192.5t81 188.5q-26 1 -49.5 3.5t-47.5 7t-49 12t-54 18.5q13 36 25.5 72t25.5 74q42 -13 74 -20t62.5 -10.5t64 -4.5t78.5 -1h260q63 0 124.5 -14t111.5 -54q49 -38 79.5 -107t30.5 -178v-686h-173v667q0 62 -8 104.5t-30 68
t-60 36.5t-98 11h-196q-56 -77 -78.5 -171t-22.5 -194q0 -81 12.5 -159.5t32.5 -149.5l33 -107q-2 -26 -4 -51.5t-7 -54.5h-396v149h219zM635 613q39 0 65.5 -26t26.5 -64q0 -18 -7.5 -35t-20 -29.5t-29 -20t-35.5 -7.5t-35.5 7.5t-28.5 20t-19 29.5t-7 35q0 37 26 63.5
t64 26.5z" />
    <glyph glyph-name="uniFB4B" unicode="&#xfb4b;" horiz-adv-x="655" 
d="M309 1365q39 0 65.5 -26t26.5 -64q0 -39 -26.5 -66t-65.5 -27q-38 0 -64 27.5t-26 65.5q0 37 26 63.5t64 26.5zM479 1039v-1039h-173v887h-175v152h348z" />
  </font>
</defs>
</svg>
