<?xml version="1.0" standalone="no"?>
<!DOCTYPE svg PUBLIC "-//W3C//DTD SVG 1.1//EN" "http://www.w3.org/Graphics/SVG/1.1/DTD/svg11.dtd" >
<svg xmlns="http://www.w3.org/2000/svg" xmlns:xlink="http://www.w3.org/1999/xlink" version="1.1">
<metadata>
Created by FontForge 20170731 at Mon Jul  4 10:14:23 2022
 By Aleksey,,,
Copyright (c) 2017 by Daniel Grumer. All rights reserved.
</metadata>
<defs>
<font id="Abraham-Regular" horiz-adv-x="886" >
  <font-face 
    font-family="Abraham"
    font-weight="400"
    font-stretch="normal"
    units-per-em="1000"
    panose-1="0 0 5 0 0 0 0 0 0 0"
    ascent="800"
    descent="-200"
    x-height="492"
    cap-height="610"
    bbox="-631 -468 1237 1125"
    underline-thickness="50"
    underline-position="-150"
    unicode-range="U+000D-FEFC"
  />
<missing-glyph horiz-adv-x="788" 
d="M700 0h-611v777h611v-777zM124 742v-707h541v707h-541zM368 295q-5 23 -5 40q0 21 9.5 40.5t25.5 41.5q15 20 20.5 29.5t6.5 19.5q0 33 -88 46l16 36q53 -3 85 -23.5t32 -52.5q0 -17 -8.5 -32.5t-25.5 -38.5q-19 -26 -27 -40t-8 -30l2 -36h-35zM367 198q-4 34 -4 46
q17 4 48 2q0 -24 -3 -48h-41z" />
    <glyph glyph-name="fi" unicode="fi" horiz-adv-x="608" 
d="M209 492h322v-492h-92v422h-230v-422h-92v421h-87l3 65l84 5v63q0 155 167 155q39 0 80 -10l-13 -72q-44 6 -75 6q-41 0 -61 -17q-6 -21 -6 -50v-74zM527 571h-90q-9 49 -10 97q33 5 71 5q24 0 36 -1z" />
    <glyph glyph-name="fl" unicode="fl" horiz-adv-x="635" 
d="M209 565v-73h142l-5 -73h-137v-419h-93v420h-86l3 67l83 5v62q0 155 168 155q45 0 92 -10l-13 -74q-44 7 -86 7q-43 0 -62 -16q-6 -22 -6 -51zM612 2q-37 -8 -79 -8q-26 0 -44.5 4t-31.5 16q-12 12 -15.5 32.5t-3.5 54.5v591l92 12v-584q0 -15 2 -43l85 -6z" />
    <glyph glyph-name="uniFEF5" unicode="&#xfedf;&#xfe82;" horiz-adv-x="514" arabic-form="isolated" 
d="M148 554q126 -108 187 -203q34 76 34 179v194l86 9v-189q0 -144 -75 -252q64 -113 64 -204q0 -59 -13 -76q-22 -15 -72 -22.5t-109 -7.5q-66 0 -114.5 6.5t-108.5 25.5l12 70l160 128q52 40 83 70q-44 65 -108.5 126.5t-140.5 109.5v13zM-43 636q41 29 94 29q22 0 46 -3
q51 -3 56 -3q43 0 87 11v-34q-15 -12 -42.5 -19t-59.5 -7q-16 0 -40 3q-9 1 -23 2t-33 1q-21 0 -39 -3.5t-46 -12.5v36zM374 75q-8 79 -52 155l-88 -70l-110 -80q53 -13 129 -13q70 0 121 8z" />
    <glyph glyph-name="uniFEF6" unicode="&#xfee0;&#xfe82;" horiz-adv-x="608" arabic-form="final" 
d="M633 46q0 -46 -27 -46q-74 0 -119.5 29.5t-64.5 100.5q-48 -84 -144.5 -129t-236.5 -45l-11 83q104 0 187 25q-21 78 -48 168t-38 126q-21 66 -46 152l83 17q72 -239 121 -433q77 44 107 113q4 24 4 60v457l86 9v-482q0 -86 26 -123t94 -37q27 0 27 -45zM131 584
q-9 1 -23 2t-33 1q-21 0 -39 -3.5t-46 -12.5v36q41 29 94 29q22 0 46 -3q51 -3 56 -3q43 0 87 11v-34q-15 -12 -42.5 -19t-59.5 -7q-16 0 -40 3z" />
    <glyph glyph-name="uniFEF7" unicode="&#xfedf;&#xfe84;" horiz-adv-x="514" arabic-form="isolated" 
d="M200 679v-48l-218 -42v42l56 16q-35 30 -35 68q0 35 29.5 60t74.5 25q28 0 55 -9l-7 -53q-22 9 -53 9q-21 0 -37.5 -6t-19.5 -20q2 -18 21.5 -32.5t58.5 -23.5zM455 733v-189q0 -144 -75 -252q64 -113 64 -204q0 -59 -13 -76q-22 -15 -72 -22.5t-109 -7.5
q-66 0 -114.5 6.5t-108.5 25.5l12 70l160 128q52 40 83 70q-44 65 -108.5 126.5t-140.5 109.5v13l115 23q126 -108 187 -203q34 76 34 179v194zM374 75q-8 79 -52 155l-88 -70l-110 -80q53 -13 129 -13q70 0 121 8z" />
    <glyph glyph-name="uniFEF8" unicode="&#xfee0;&#xfe84;" horiz-adv-x="620" arabic-form="final" 
d="M243 646v-46l-213 -41v41l55 15q-34 29 -34 67q0 34 29 58t72 24q26 0 54 -8l-7 -52q-22 9 -52 9q-20 0 -36.5 -6t-18.5 -20q2 -17 21 -31t57 -23zM645 46q0 -46 -27 -46q-74 0 -119.5 29.5t-64.5 100.5q-48 -84 -144.5 -129t-236.5 -45l-11 83q104 0 187 25
q-21 78 -48 168t-38 126q-21 66 -46 152l83 17q72 -239 121 -433q77 44 107 113q4 24 4 60v457l86 9v-482q0 -86 26 -123t94 -37q27 0 27 -45z" />
    <glyph glyph-name="uniFEF9" unicode="&#xfedf;&#xfe88;" horiz-adv-x="500" arabic-form="isolated" 
d="M135.5 -11.5q-48.5 6.5 -108.5 25.5l12 70l160 128q52 40 83 70q-107 145 -292 273l59 71q91 -67 167.5 -140.5t118.5 -134.5q34 76 34 179v194l86 9v-189q0 -144 -75 -252q64 -113 64 -204q0 -59 -13 -76q-22 -15 -72 -22.5t-109 -7.5q-66 0 -114.5 6.5zM374 75
q-8 79 -52 155l-88 -70l-110 -80q53 -13 129 -13q70 0 121 8zM223 -199v-48l-218 -42v42l56 16q-35 30 -35 68q0 35 29.5 60t74.5 25q28 0 55 -9l-7 -53q-22 9 -53 9q-21 0 -37.5 -6t-19.5 -20q2 -18 21.5 -32.5t58.5 -23.5z" />
    <glyph glyph-name="uniFEFA" unicode="&#xfee0;&#xfe88;" horiz-adv-x="608" arabic-form="final" 
d="M633 46q0 -46 -27 -46q-74 0 -119.5 29.5t-64.5 100.5q-48 -84 -144.5 -129t-236.5 -45l-11 83q102 0 187 25q-49 204 -163 535l88 9q52 -163 88 -286t59 -227q77 42 107 112q4 24 4 60v457l86 9v-482q0 -86 26 -123t94 -37q27 0 27 -45zM296 -200v-48l-218 -42v42l56 16
q-35 30 -35 68q0 35 29.5 60t74.5 25q28 0 55 -9l-7 -53q-22 9 -53 9q-21 0 -37.5 -6t-19.5 -20q2 -18 21.5 -32.5t58.5 -23.5z" />
    <glyph glyph-name="uniFEFB" unicode="&#xfedf;&#xfe8e;" horiz-adv-x="500" arabic-form="isolated" 
d="M135.5 -11.5q-48.5 6.5 -108.5 25.5l12 70l160 128q52 40 83 70q-107 145 -292 273l59 71q91 -67 167.5 -140.5t118.5 -134.5q34 76 34 179v194l86 9v-189q0 -144 -75 -252q64 -113 64 -204q0 -59 -13 -76q-22 -15 -72 -22.5t-109 -7.5q-66 0 -114.5 6.5zM374 75
q-8 79 -52 155l-88 -70l-110 -80q53 -13 129 -13q70 0 121 8z" />
    <glyph glyph-name="uniFEFC" unicode="&#xfee0;&#xfe8e;" horiz-adv-x="608" arabic-form="final" 
d="M633 46q0 -46 -27 -46q-74 0 -119.5 29.5t-64.5 100.5q-48 -84 -144.5 -129t-236.5 -45l-11 83q102 0 187 25q-49 204 -163 535l88 9q52 -163 88 -286t59 -227q77 42 107 112q4 24 4 60v457l86 9v-482q0 -86 26 -123t94 -37q27 0 27 -45z" />
    <glyph glyph-name="f_f.liga" unicode="ff" horiz-adv-x="691" 
d="M534 565v-73h131l-5 -71h-126v-421h-92v424h-233v-424h-92v421h-87l3 64l84 5v64q0 155 166 155q38 0 79 -10l-13 -74q-38 7 -74 7q-43 0 -60 -16q-6 -22 -6 -51v-76h233v65q0 155 167 155q45 0 92 -10l-14 -75q-48 8 -85 8q-42 0 -62 -16q-6 -18 -6 -51z" />
    <glyph glyph-name="f_t.liga" unicode="ft" horiz-adv-x="667" 
d="M633 420h-112v-341q23 -3 43 -3q32 0 68 6l-2 -74q-47 -14 -88 -14q-62 0 -87.5 23t-25.5 76v329h-220v-422h-92v421h-87l3 65l84 5v63q0 155 167 155q39 0 80 -10l-13 -74q-38 7 -75 7q-42 0 -61 -16q-6 -22 -6 -51v-74h225l12 122l75 10v-131h118z" />
    <glyph glyph-name="f_f_i.liga" unicode="ffi" horiz-adv-x="932" 
d="M533 492h323v-492h-92v424h-231v-424h-92v424h-232v-424h-92v421h-87l3 64l84 5v64q0 155 166 155q38 0 79 -10l-13 -74q-38 7 -74 7q-43 0 -60 -16q-6 -22 -6 -51v-76h232v65q0 155 166 155q40 0 81 -10l-13 -72q-44 6 -75 6q-41 0 -61 -17q-6 -17 -6 -50v-74zM851 571
h-90q-9 49 -10 97q33 5 71 5q24 0 36 -1z" />
    <glyph glyph-name="f_f_t.liga" unicode="fft" horiz-adv-x="992" 
d="M958 421h-112v-342q15 -3 42 -3q33 0 68 6l-1 -74q-47 -14 -88 -14q-62 0 -87.5 23t-25.5 76v331h-220v-424h-92v424h-233v-424h-92v421h-87l3 64l84 5v64q0 155 166 155q38 0 79 -10l-13 -74q-38 7 -74 7q-43 0 -60 -16q-6 -22 -6 -51v-76h233v65q0 155 166 155
q38 0 79 -10l-13 -74q-39 7 -74 7q-41 0 -61 -16q-5 -19 -5 -51v-76h225l12 124l75 10v-131h118z" />
    <glyph glyph-name="uni06440671" unicode="&#xfedf;&#xfb51;" horiz-adv-x="514" 
d="M29 602q-41 -2 -65 -8v33q27 16 52 19q36 51 71.5 76t78.5 25q37 0 57 -21t20 -64q0 -15 -3 -28.5t-8 -18.5q-21 -12 -116 -12q-65 0 -87 -1zM455 733v-189q0 -144 -75 -252q64 -113 64 -204q0 -59 -13 -76q-22 -15 -72 -22.5t-109 -7.5q-66 0 -114.5 6.5t-108.5 25.5
l12 70l160 128q52 40 83 70q-44 65 -108.5 126.5t-140.5 109.5v13l115 23q126 -108 187 -203q34 76 34 179v194zM108.5 686q-22.5 -11 -47.5 -39l70 2q28 0 46 0.5t23 3.5q0 24 -10 34t-33 10q-26 0 -48.5 -11zM374 75q-8 79 -52 155l-88 -70l-110 -80q53 -13 129 -13
q70 0 121 8z" />
    <glyph glyph-name="uni06440671.fina" unicode="&#xfee0;&#xfb51;" horiz-adv-x="608" 
d="M633 46q0 -46 -27 -46q-74 0 -119.5 29.5t-64.5 100.5q-48 -84 -144.5 -129t-236.5 -45l-11 83q104 0 187 25q-21 78 -48 168t-38 126q-21 66 -46 152l83 17q72 -239 121 -433q77 44 107 113q4 24 4 60v457l86 9v-482q0 -86 26 -123t94 -37q27 0 27 -45zM62 573
q-41 -2 -65 -8v33q27 16 52 19q36 51 71.5 76t78.5 25q37 0 57 -21t20 -64q0 -15 -3 -28.5t-8 -18.5q-21 -12 -116 -12q-65 0 -87 -1zM142 657q-23 -11 -48 -39l70 2q28 0 46 0.5t23 3.5q0 24 -10 34t-33 10q-25 0 -48 -11z" />
    <glyph glyph-name="uniFC32" unicode="&#xfed3;&#xfef2;" horiz-adv-x="836" 
d="M643 586l-67 -3q-9 41 -8 76q20 4 51 4q18 0 26 -1zM769.5 98.5q-12.5 -71.5 -25.5 -84.5q-20 -14 -96 -14v-8q0 -61 -23 -101q-44 -55 -123.5 -85.5t-175.5 -30.5q-289 0 -289 262q0 46 8 94.5t24 92.5h74q-22 -86 -22 -159q0 -98 55.5 -145.5t166.5 -47.5
q75 0 133 18.5t88 54.5q6 13 6 26q0 21 -4 34q-83 2 -164 8l14 83q106 -5 224 -5q32 0 56 2q8 56 10 82q-91 1 -147 13t-85.5 42.5t-29.5 86.5q0 46 19.5 90t56.5 71.5t87 27.5q46 0 86 -30t64.5 -88.5t24.5 -141.5q0 -76 -12.5 -147.5zM555.5 276q45.5 -16 151.5 -17
q-3 51 -20 87t-42 53.5t-52 17.5q-41 0 -62 -26t-21 -58q0 -41 45.5 -57zM269 -311q18 0 26 -1l-2 -78l-69 -3q-9 42 -8 78q21 4 53 4zM398 -311q18 0 27 -1l-2 -78l-69 -3q-9 42 -8 78q20 4 52 4z" />
    <glyph glyph-name="uniFB6CFEF2" unicode="&#xfb6c;&#xfef2;" horiz-adv-x="836" 
d="M642 722l-66 -3q-9 39 -8 75q20 4 51 4q17 0 25 -1zM634 592q-9 42 -8 79q21 4 53 4q18 0 27 -1l-2 -79zM573 591l-70 -3q-9 42 -8 79q21 4 53 4q18 0 27 -1zM769.5 98.5q-12.5 -71.5 -25.5 -84.5q-20 -14 -96 -14v-8q0 -61 -23 -101q-44 -55 -123.5 -85.5t-175.5 -30.5
q-289 0 -289 262q0 46 8 94.5t24 92.5h74q-22 -86 -22 -159q0 -98 55.5 -145.5t166.5 -47.5q75 0 133 18.5t88 54.5q6 13 6 26q0 21 -4 34q-83 2 -164 8l14 83q106 -5 224 -5q32 0 56 2q8 56 10 82q-91 1 -147 13t-85.5 42.5t-29.5 86.5q0 46 19.5 90t56.5 71.5t87 27.5
q46 0 86 -30t64.5 -88.5t24.5 -141.5q0 -76 -12.5 -147.5zM555.5 276q45.5 -16 151.5 -17q-3 51 -20 87t-42 53.5t-52 17.5q-41 0 -62 -26t-21 -58q0 -41 45.5 -57zM269 -311q18 0 26 -1l-2 -78l-69 -3q-9 42 -8 78q21 4 53 4zM398 -311q18 0 27 -1l-2 -78l-69 -3
q-9 42 -8 78q20 4 52 4z" />
    <glyph glyph-name="uniFC36" unicode="&#xfed7;&#xfef2;" horiz-adv-x="836" 
d="M702 592l-68 -3q-9 41 -8 76q20 4 51 4q18 0 26 -1zM575 588l-68 -3q-9 41 -8 76q20 4 51 4q18 0 26 -1zM769.5 98.5q-12.5 -71.5 -25.5 -84.5q-20 -14 -96 -14v-8q0 -61 -23 -101q-44 -55 -123.5 -85.5t-175.5 -30.5q-289 0 -289 262q0 46 8 94.5t24 92.5h74
q-22 -86 -22 -159q0 -98 55.5 -145.5t166.5 -47.5q75 0 133 18.5t88 54.5q6 13 6 26q0 21 -4 34q-83 2 -164 8l14 83q106 -5 224 -5q32 0 56 2q8 56 10 82q-91 1 -147 13t-85.5 42.5t-29.5 86.5q0 46 19.5 90t56.5 71.5t87 27.5q46 0 86 -30t64.5 -88.5t24.5 -141.5
q0 -76 -12.5 -147.5zM555.5 276q45.5 -16 151.5 -17q-3 51 -20 87t-42 53.5t-52 17.5q-41 0 -62 -26t-21 -58q0 -41 45.5 -57zM269 -311q18 0 26 -1l-2 -78l-69 -3q-9 42 -8 78q21 4 53 4zM398 -311q18 0 27 -1l-2 -78l-69 -3q-9 42 -8 78q20 4 52 4z" />
    <glyph glyph-name="uni066E.init" unicode="&#x66e;" horiz-adv-x="298" 
d="M204 367l2 -34q8 -132 8 -178q0 -70 -12 -98q-26 -26 -83 -41.5t-119 -15.5q-13 0 -19 11t-6 35t6 34.5t19 10.5q84 0 138 20q-3 58 -16 223l-2 23z" />
    <glyph glyph-name="uni066E.medi" unicode="&#x66e;" horiz-adv-x="353" 
d="M378 46q0 -46 -25 -46q-129 0 -179 72q-25 -33 -70 -52.5t-104 -19.5q-13 0 -19 11t-6 35t6 34.5t19 10.5q46 0 82.5 11.5t55.5 34.5q3 14 3 63v115l81 8v-115q0 -67 29 -92t102 -25q25 0 25 -45z" />
    <glyph glyph-name="uni066E.fina" unicode="&#x66e;" horiz-adv-x="869" 
d="M894 46q0 -46 -26 -46q-131 0 -181 77q-47 -47 -130 -68t-177 -21q-176 0 -259.5 47.5t-83.5 153.5q0 67 28 138h74q-15 -57 -15 -105q0 -50 26.5 -80.5t85.5 -45t158 -14.5q89 0 156.5 15t103.5 44q3 17 3 59v93l80 8v-93q0 -66 29.5 -91.5t101.5 -25.5q26 0 26 -45z
" />
    <glyph glyph-name="uni066F.fina" unicode="&#x66f;" horiz-adv-x="695" 
d="M694 91q13 0 19.5 -11t6.5 -34q0 -24 -6 -35t-20 -11h-68q-6 -43 -16.5 -76.5t-23.5 -52.5q-32 -37 -94.5 -66.5t-166.5 -29.5q-146 0 -217 67t-71 191q0 94 31 184h74q-21 -82 -21 -155q0 -97 55.5 -143.5t171.5 -46.5q130 0 195 65q8 42 11 65q-95 2 -151 14t-84.5 43
t-28.5 89q0 49 19.5 94t57 74t87.5 29q46 0 86.5 -30t65.5 -87.5t26 -136.5h62zM401 107.5q46 -16.5 155 -17.5q-3 54 -20 91t-42.5 55.5t-53.5 18.5q-42 0 -63.5 -27.5t-21.5 -61.5q0 -42 46 -58.5z" />
    <glyph glyph-name="uni06A1.init" unicode="&#x6a1;" horiz-adv-x="455" 
d="M312 476q40 -30 64.5 -88.5t24.5 -141.5q0 -76 -10.5 -143t-24.5 -78q-21 -12 -86.5 -18.5t-153.5 -6.5h-126q-13 0 -19 11t-6 35t6 34.5t19 10.5h137q122 0 179 7q7 47 9 77q-91 1 -147 13t-85.5 42.5t-29.5 86.5q0 46 19.5 90t56.5 71.5t87 27.5q46 0 86 -30z
M174.5 276q45.5 -16 151.5 -17q-3 51 -20 87t-42 53.5t-52 17.5q-41 0 -62 -26t-21 -58q0 -41 45.5 -57z" />
    <glyph glyph-name="uni06A1.medi" unicode="&#x6a1;" horiz-adv-x="478" 
d="M-19 10q-6 10 -6 35q0 24 6 35t19 11q86 1 142 9q-70 47 -70 122q0 48 22 92t61 71t85 27q44 0 82.5 -23t61 -62t22.5 -85q0 -42 -19 -76t-58 -65q53 -10 116 -10h32q13 0 19.5 -11t6.5 -34q0 -24 -6 -35t-20 -11q-76 1 -138 9.5t-115 29.5q-55 -21 -106 -30t-117 -9
q-14 0 -20 10zM310 171q19 23 19 54q0 44 -32 72t-71 28q-36 0 -61 -26t-25 -62q0 -33 25.5 -58t80.5 -53q45 22 64 45z" />
    <glyph glyph-name="uni06A1.fina" unicode="&#x6a1;" horiz-adv-x="899" 
d="M117 38q-80 50 -80 150q0 69 25 140h76q-16 -53 -16 -104q0 -74 54 -108t179 -34q74 1 118 4.5t94 13.5q-73 48 -73 125q0 48 22 92t61 71t85 27q44 0 82.5 -23t61 -62.5t22.5 -85.5q0 -42 -20 -76.5t-59 -65.5q57 -12 118 -12h32q13 0 19 -10.5t6 -34.5t-6 -35t-19 -11
q-78 1 -138 10t-115 34q-76 -30 -144.5 -42.5t-161.5 -12.5q-143 0 -223 50zM732 173.5q19 23.5 19 54.5q0 44 -31.5 71.5t-71.5 27.5q-36 0 -60.5 -25.5t-24.5 -62.5q0 -33 25.5 -58t79.5 -52q45 21 64 44.5z" />
    <glyph glyph-name="uniFB50" unicode="&#x671;" horiz-adv-x="289" arabic-form="isolated" 
d="M188 0h-87v595l87 9v-604zM279 775q20 -21 20 -64q0 -15 -3 -28.5t-8 -18.5q-21 -12 -116 -12q-65 0 -87 -1q-41 -2 -65 -8v33q27 16 52 19q36 51 71.5 76t78.5 25q37 0 57 -21zM233 698.5q18 0.5 23 3.5q0 24 -10 34t-33 10q-25 0 -48 -11t-48 -39l70 2q28 0 46 0.5z
" />
    <glyph glyph-name="uniFB51" unicode="&#x671;" horiz-adv-x="293" arabic-form="final" 
d="M318 46q0 -46 -25 -46q-73 0 -115.5 14.5t-62 48t-19.5 92.5v440l87 9v-439q0 -32 9.5 -47.5t32.5 -21t68 -5.5q25 0 25 -45zM274 775q20 -21 20 -64q0 -15 -3 -28.5t-8 -18.5q-21 -12 -116 -12q-65 0 -87 -1q-41 -2 -65 -8v33q27 16 52 19q36 51 71.5 76t78.5 25
q37 0 57 -21zM228 698.5q18 0.5 23 3.5q0 24 -10 34t-33 10q-25 0 -48 -11t-48 -39l70 2q28 0 46 0.5z" />
    <glyph glyph-name="uniFB57" unicode="&#x67e;" horiz-adv-x="869" arabic-form="final" 
d="M894 46q0 -46 -26 -46q-131 0 -181 77q-47 -47 -130 -68t-177 -21q-176 0 -259.5 47.5t-83.5 153.5q0 67 28 138h74q-15 -57 -15 -105q0 -50 26.5 -80.5t85.5 -45t158 -14.5q89 0 156.5 15t103.5 44q3 17 3 59v93l80 8v-93q0 -66 29.5 -91.5t101.5 -25.5q26 0 26 -45z
M278 -184q-9 42 -8 80q21 4 54 4q18 0 27 -1l-2 -80zM411 -184q-9 42 -8 80q21 4 54 4q18 0 27 -1l-2 -80zM342 -337q-9 39 -8 76q20 4 52 4q18 0 26 -1l-2 -76z" />
    <glyph glyph-name="uniFB58" unicode="&#x67e;" horiz-adv-x="298" arabic-form="initial" 
d="M204 367l2 -34q8 -132 8 -178q0 -70 -12 -98q-26 -26 -83 -41.5t-119 -15.5q-13 0 -19 11t-6 35t6 34.5t19 10.5q84 0 138 20q-3 58 -16 223l-2 23zM-3 -172q-9 42 -8 80q21 4 54 4q18 0 27 -1l-2 -80zM130 -172q-9 42 -8 80q21 4 54 4q18 0 27 -1l-2 -80zM61 -325
q-9 39 -8 76q20 4 52 4q18 0 26 -1l-2 -76z" />
    <glyph glyph-name="uniFB59" unicode="&#x67e;" horiz-adv-x="353" arabic-form="medial" 
d="M378 46q0 -46 -25 -46q-129 0 -179 72q-25 -33 -70 -52.5t-104 -19.5q-13 0 -19 11t-6 35t6 34.5t19 10.5q46 0 82.5 11.5t55.5 34.5q3 14 3 63v115l81 8v-115q0 -67 29 -92t102 -25q25 0 25 -45zM65 -172q-9 42 -8 80q21 4 54 4q18 0 27 -1l-2 -80zM198 -172
q-9 42 -8 80q21 4 54 4q18 0 27 -1l-2 -80zM129 -325q-9 39 -8 76q20 4 52 4q18 0 26 -1l-2 -76z" />
    <glyph glyph-name="uniFB6B" unicode="&#x6a4;" horiz-adv-x="899" arabic-form="final" 
d="M117 38q-80 50 -80 150q0 69 25 140h76q-16 -53 -16 -104q0 -74 54 -108t179 -34q74 1 118 4.5t94 13.5q-73 48 -73 125q0 48 22 92t61 71t85 27q44 0 82.5 -23t61 -62.5t22.5 -85.5q0 -42 -20 -76.5t-59 -65.5q57 -12 118 -12h32q13 0 19 -10.5t6 -34.5t-6 -35t-19 -11
q-78 1 -138 10t-115 34q-76 -30 -144.5 -42.5t-161.5 -12.5q-143 0 -223 50zM732 173.5q19 23.5 19 54.5q0 44 -31.5 71.5t-71.5 27.5q-36 0 -60.5 -25.5t-24.5 -62.5q0 -33 25.5 -58t79.5 -52q45 21 64 44.5zM631 631q-9 41 -8 76q20 4 51 4q18 0 26 -1l-2 -76zM690 502
q-9 42 -8 80q21 4 54 4q18 0 27 -1l-2 -80zM557 498q-9 42 -8 80q21 4 54 4q18 0 27 -1l-2 -80z" />
    <glyph glyph-name="uniFB6C" unicode="&#x6a4;" horiz-adv-x="455" arabic-form="initial" 
d="M312 476q40 -30 64.5 -88.5t24.5 -141.5q0 -76 -10.5 -143t-24.5 -78q-21 -12 -86.5 -18.5t-153.5 -6.5h-126q-13 0 -19 11t-6 35t6 34.5t19 10.5h137q122 0 179 7q7 47 9 77q-91 1 -147 13t-85.5 42.5t-29.5 86.5q0 46 19.5 90t56.5 71.5t87 27.5q46 0 86 -30z
M174.5 276q45.5 -16 151.5 -17q-3 51 -20 87t-42 53.5t-52 17.5q-41 0 -62 -26t-21 -58q0 -41 45.5 -57zM195 722q-9 41 -8 76q20 4 51 4q18 0 26 -1l-2 -76zM254 593q-9 42 -8 80q21 4 54 4q18 0 27 -1l-2 -80zM121 589q-9 42 -8 80q21 4 54 4q18 0 27 -1l-2 -80z" />
    <glyph glyph-name="uniFB6D" unicode="&#x6a4;" horiz-adv-x="478" arabic-form="medial" 
d="M-19 10q-6 10 -6 35q0 24 6 35t19 11q86 1 142 9q-70 47 -70 122q0 48 22 92t61 71t85 27q44 0 82.5 -23t61 -62t22.5 -85q0 -42 -19 -76t-58 -65q53 -10 116 -10h32q13 0 19.5 -11t6.5 -34q0 -24 -6 -35t-20 -11q-76 1 -138 9.5t-115 29.5q-55 -21 -106 -30t-117 -9
q-14 0 -20 10zM310 171q19 23 19 54q0 44 -32 72t-71 28q-36 0 -61 -26t-25 -62q0 -33 25.5 -58t80.5 -53q45 22 64 45zM209 628q-9 41 -8 76q20 4 51 4q18 0 26 -1l-2 -76zM268 499q-9 42 -8 80q21 4 54 4q18 0 27 -1l-2 -80zM135 495q-9 42 -8 80q21 4 54 4q18 0 27 -1
l-2 -80z" />
    <glyph glyph-name="uniFB7B" unicode="&#x686;" horiz-adv-x="656" arabic-form="final" 
d="M681 46q0 -46 -25 -46q-80 0 -125 23.5t-66.5 78.5t-26.5 155q-170 -54 -245.5 -118t-75.5 -147q0 -86 71.5 -130.5t197.5 -44.5q38 0 81.5 5t77.5 13l-10 -78q-41 -16 -89.5 -24.5t-92.5 -8.5q-103 0 -175 33t-108.5 89.5t-36.5 126.5q0 113 93 200t286 153l-30 10
q-67 23 -112 34t-95 11q-58 0 -125 -31l12 89q27 13 61.5 20t66.5 7q49 0 94 -11t107 -32q65 -21 106 -31t87 -11l-13 -86l-72 -19q5 -76 20 -115t46 -54.5t91 -15.5q25 0 25 -45zM422 12l-61 -3q-8 38 -7 69q21 3 45 3q17 0 25 -1zM312 10l-61 -3q-7 32 -7 69q21 3 46 3
q16 0 24 -1zM364 -99l-61 -3q-8 38 -7 69q21 3 45 3q17 0 25 -1z" />
    <glyph glyph-name="uniFB7C" unicode="&#x686;" horiz-adv-x="632" arabic-form="initial" 
d="M590 214h-2q-82 -35 -191 -91q-86 -43 -140 -67t-119 -40t-138 -16q-13 0 -19 11t-6 35t6 34.5t19 10.5q75 0 141.5 14t124.5 36.5t149 62.5q40 18 62 27q-31 8 -80 25q-64 22 -108.5 33t-94.5 11q-58 0 -125 -31l12 89q27 13 61.5 20t66.5 7q49 0 94 -11t107 -32
q65 -21 106 -31t87 -11zM236 -107q-9 42 -8 80q21 4 54 4q18 0 27 -1l-2 -80zM369 -107q-9 42 -8 80q21 4 54 4q18 0 27 -1l-2 -80zM300 -260q-9 39 -8 76q20 4 52 4q18 0 26 -1l-2 -76z" />
    <glyph glyph-name="uniFB7D" unicode="&#x686;" horiz-adv-x="676" arabic-form="medial" 
d="M701 46q0 -46 -25 -46q-76 0 -118 16t-62.5 49t-31.5 92q-13 -6 -66 -34q-86 -43 -140 -67t-119 -40t-139 -16q-13 0 -19 11t-6 35t6 34.5t19 10.5q75 0 141.5 14t124.5 36.5t149 62.5q40 18 62 27q-31 8 -80 25q-64 22 -108.5 33t-94.5 11q-58 0 -125 -31l12 89
q27 13 61.5 20t66.5 7q49 0 94 -11t107 -32q65 -21 106 -31t87 -11l-13 -86h-2q-15 -6 -52 -22l-20 -9q10 -45 21.5 -62.5t40.5 -23.5t98 -6q25 0 25 -45zM253 -113q-9 42 -8 80q21 4 54 4q18 0 27 -1l-2 -80zM386 -113q-9 42 -8 80q21 4 54 4q18 0 27 -1l-2 -80zM317 -266
q-9 39 -8 76q20 4 52 4q18 0 26 -1l-2 -76z" />
    <glyph glyph-name="uniFB8B" unicode="&#x698;" horiz-adv-x="319" arabic-form="final" 
d="M338 80q6 -11 6 -35q0 -25 -6 -35t-22 -10q-66 0 -103 30q-19 -113 -86.5 -184t-166.5 -71q-11 0 -17 1l-10 71q95 18 152 81t66 168q-9 59 -27 140l78 23q4 -20 11 -61q2 -8 6.5 -32.5t9.5 -36.5q10 -22 29 -30t61 -8q13 0 19 -11zM96 472q-9 41 -8 76q20 4 51 4
q18 0 26 -1l-2 -76zM155 343q-9 42 -8 80q21 4 54 4q18 0 27 -1l-2 -80zM22 339q-9 42 -8 80q21 4 54 4q18 0 27 -1l-2 -80z" />
    <glyph glyph-name="uniFB8F" unicode="&#x6a9;" horiz-adv-x="699" arabic-form="final" 
d="M98 29q-61 39 -61 116q0 37 16 76h75q-7 -25 -7 -52q0 -46 39 -65.5t114 -19.5q83 0 131.5 12t101.5 43l-189 292v65l315 245l8 -95l-241 -180v-8l172 -268q39 -62 66.5 -80.5t59.5 -18.5q13 0 19.5 -11t6.5 -34q0 -24 -6 -35t-20 -11q-47 0 -83 17.5t-69 59.5
q-58 -46 -129 -66.5t-164 -20.5q-94 0 -155 39z" />
    <glyph glyph-name="uniFB90" unicode="&#x6a9;" horiz-adv-x="399" arabic-form="initial" 
d="M-19 11q-6 11 -6 35t6 34.5t19 10.5q118 0 179 3t106 12q-7 161 -198 308l-51 26v59l314 242l7 -97l-211 -160q107 -86 160 -181.5t53 -190.5q0 -42 -12 -68q-45 -44 -347 -44q-13 0 -19 11z" />
    <glyph glyph-name="uniFB91" unicode="&#x6a9;" horiz-adv-x="440" arabic-form="medial" 
d="M-19 11q-6 11 -6 35t6 34.5t19 10.5q87 0 138 9.5t106 36.5l-203 294v65l335 245l7 -95l-263 -186l220 -317q21 -31 41 -41.5t58 -10.5q13 0 19.5 -11t6.5 -34q0 -24 -6 -35t-20 -11q-54 0 -86 16t-70 62q-102 -78 -283 -78q-13 0 -19 11z" />
    <glyph glyph-name="uniFB93" unicode="&#x6af;" horiz-adv-x="699" arabic-form="final" 
d="M627 782l-310 -242v53l307 243zM98 29q-61 39 -61 116q0 37 16 76h75q-7 -25 -7 -52q0 -46 39 -65.5t114 -19.5q83 0 131.5 12t101.5 43l-189 292v65l315 245l8 -95l-241 -180v-8l172 -268q39 -62 66.5 -80.5t59.5 -18.5q13 0 19.5 -11t6.5 -34q0 -24 -6 -35t-20 -11
q-47 0 -83 17.5t-69 59.5q-58 -46 -129 -66.5t-164 -20.5q-94 0 -155 39z" />
    <glyph glyph-name="uniFB94" unicode="&#x6af;" horiz-adv-x="379" arabic-form="initial" 
d="M345 784l-311 -243v52l308 244zM-19 11q-6 11 -6 35t6 34.5t19 10.5q118 0 179 3t106 12q-7 161 -198 308l-51 26v59l314 242l7 -97l-211 -160q107 -86 160 -181.5t53 -190.5q0 -42 -12 -68q-45 -44 -347 -44q-13 0 -19 11z" />
    <glyph glyph-name="uniFB95" unicode="&#x6af;" horiz-adv-x="421" arabic-form="medial" 
d="M370 784l-331 -244v52l328 245zM-19 11q-6 11 -6 35t6 34.5t19 10.5q87 0 138 9.5t106 36.5l-203 294v65l335 245l7 -95l-263 -186l220 -317q21 -31 41 -41.5t58 -10.5q13 0 19.5 -11t6.5 -34q0 -24 -6 -35t-20 -11q-54 0 -86 16t-70 62q-102 -78 -283 -78q-13 0 -19 11z
" />
    <glyph glyph-name="uniFB9F" unicode="&#x6ba;" horiz-adv-x="692" arabic-form="final" 
d="M717 46q0 -46 -26 -46q-79 0 -125 41q0 -101 -17 -137q-37 -39 -107 -60t-152 -21q-119 0 -186 57.5t-67 170.5q0 81 31 159h73q-20 -73 -20 -126q0 -86 45 -125.5t139 -39.5q52 0 98 9.5t80 28.5v36q0 53 -13 259l87 10l3 -46v0q4 -51 16.5 -77.5t39 -37t75.5 -10.5
q26 0 26 -45z" />
    <glyph glyph-name="uniFBFD" unicode="&#x6cc;" horiz-adv-x="640" arabic-form="final" 
d="M648 1v-9q0 -61 -23 -101q-44 -55 -123.5 -85.5t-175.5 -30.5q-289 0 -289 262q0 46 8 94.5t24 92.5h74q-22 -86 -22 -159q0 -98 55.5 -145.5t166.5 -47.5q75 0 133 18.5t88 54.5q6 13 6 26q0 21 -4 34q-83 2 -164 8l14 83q106 -5 224 -5q13 0 19 -10.5t6 -34.5
q0 -39 -17 -45z" />
    <glyph glyph-name="uniFBFE" unicode="&#x6cc;" horiz-adv-x="298" arabic-form="initial" 
d="M204 367l2 -34q8 -132 8 -178q0 -70 -12 -98q-26 -26 -83 -41.5t-119 -15.5q-13 0 -19 11t-6 35t6 34.5t19 10.5q84 0 138 20q-3 58 -16 223l-2 23zM-6 -172q-9 42 -8 80q21 4 54 4q18 0 27 -1l-2 -80zM127 -172q-9 42 -8 80q21 4 54 4q18 0 27 -1l-2 -80z" />
    <glyph glyph-name="uniFBFF" unicode="&#x6cc;" horiz-adv-x="353" arabic-form="medial" 
d="M378 46q0 -46 -25 -46q-129 0 -179 72q-25 -33 -70 -52.5t-104 -19.5q-13 0 -19 11t-6 35t6 34.5t19 10.5q46 0 82.5 11.5t55.5 34.5q3 14 3 63v115l81 8v-115q0 -67 29 -92t102 -25q25 0 25 -45zM62 -172q-9 42 -8 80q21 4 54 4q18 0 27 -1l-2 -80zM195 -172
q-9 42 -8 80q21 4 54 4q18 0 27 -1l-2 -80z" />
    <glyph glyph-name="uniFE80" unicode="&#x621;" horiz-adv-x="391" arabic-form="isolated" 
d="M382 127l-8 -91l-344 -76v71l79 30q-52 47 -52 97q0 53 25 96t65 67t84 24q47 0 104 -27l-10 -70q-51 11 -86 11q-41 0 -78 -24t-37 -55q6 -23 32.5 -47t70.5 -41z" />
    <glyph glyph-name="uniFE81" unicode="&#x622;" horiz-adv-x="289" arabic-form="isolated" 
d="M188 0h-87v595l87 9v-604zM13 685q41 29 94 29q22 0 46 -3q51 -3 56 -3q43 0 87 11v-34q-15 -12 -42.5 -19t-59.5 -7q-16 0 -40 3q-9 1 -23 2t-33 1q-21 0 -39 -3.5t-46 -12.5v36z" />
    <glyph glyph-name="uniFE82" unicode="&#x622;" horiz-adv-x="293" arabic-form="final" 
d="M318 46q0 -46 -25 -46q-73 0 -115.5 14.5t-62 48t-19.5 92.5v440l87 9v-439q0 -32 9.5 -47.5t32.5 -21t68 -5.5q25 0 25 -45zM8 685q41 29 94 29q22 0 46 -3q51 -3 56 -3q43 0 87 11v-34q-15 -12 -42.5 -19t-59.5 -7q-16 0 -40 3q-9 1 -23 2t-33 1q-21 0 -39 -3.5
t-46 -12.5v36z" />
    <glyph glyph-name="uniFE83" unicode="&#x623;" horiz-adv-x="289" arabic-form="isolated" 
d="M188 0h-87v595l87 9v-604zM256 728v-48l-218 -42v42l56 16q-35 30 -35 68q0 35 29.5 60t74.5 25q28 0 55 -9l-7 -53q-22 9 -53 9q-21 0 -37.5 -6t-19.5 -20q2 -18 21.5 -32.5t58.5 -23.5z" />
    <glyph glyph-name="uniFE84" unicode="&#x623;" horiz-adv-x="293" arabic-form="final" 
d="M318 46q0 -46 -25 -46q-73 0 -115.5 14.5t-62 48t-19.5 92.5v440l87 9v-439q0 -32 9.5 -47.5t32.5 -21t68 -5.5q25 0 25 -45zM251 728v-48l-218 -42v42l56 16q-35 30 -35 68q0 35 29.5 60t74.5 25q28 0 55 -9l-7 -53q-22 9 -53 9q-21 0 -37.5 -6t-19.5 -20
q2 -18 21.5 -32.5t58.5 -23.5z" />
    <glyph glyph-name="uniFE85" unicode="&#x624;" horiz-adv-x="428" arabic-form="isolated" 
d="M307 312q40 -31 65 -90t25 -140q0 -152 -90 -231.5t-253 -79.5l-10 82q124 8 189 42.5t83 105.5q-92 1 -147.5 13t-84 43t-28.5 88q0 49 20 94.5t57.5 74.5t87.5 29q46 0 86 -31zM168.5 105q46.5 -17 155.5 -18q-4 80 -38 122.5t-80 42.5q-42 0 -63 -27t-21 -61
q0 -42 46.5 -59zM332 471v-48l-218 -42v42l56 16q-35 30 -35 68q0 35 29.5 60t74.5 25q28 0 55 -9l-7 -53q-22 9 -53 9q-21 0 -37.5 -6t-19.5 -20q2 -18 21.5 -32.5t58.5 -23.5z" />
    <glyph glyph-name="uniFE86" unicode="&#x624;" horiz-adv-x="460" arabic-form="final" 
d="M459 91q13 0 19.5 -11t6.5 -34q0 -24 -6 -35t-20 -11h-70q-22 -112 -109 -170.5t-226 -58.5l-10 82q124 8 189 42.5t83 105.5q-92 1 -147.5 13t-84 43t-28.5 88q0 49 20 94.5t57.5 74.5t87.5 29q45 0 84.5 -29.5t65 -87t26.5 -135.5h62zM168.5 105q46.5 -17 155.5 -18
q-4 80 -38 122.5t-80 42.5q-42 0 -63 -27t-21 -61q0 -42 46.5 -59zM332 471v-48l-218 -42v42l56 16q-35 30 -35 68q0 35 29.5 60t74.5 25q28 0 55 -9l-7 -53q-22 9 -53 9q-21 0 -37.5 -6t-19.5 -20q2 -18 21.5 -32.5t58.5 -23.5z" />
    <glyph glyph-name="uniFE87" unicode="&#x625;" horiz-adv-x="289" arabic-form="isolated" 
d="M188 0h-87v724l87 9v-733zM254 -196v-48l-218 -42v42l56 16q-35 30 -35 68q0 35 29.5 60t74.5 25q28 0 55 -9l-7 -53q-22 9 -53 9q-21 0 -37.5 -6t-19.5 -20q2 -18 21.5 -32.5t58.5 -23.5z" />
    <glyph glyph-name="uniFE88" unicode="&#x625;" horiz-adv-x="293" arabic-form="final" 
d="M318 46q0 -46 -25 -46q-73 0 -115.5 14.5t-62 48t-19.5 92.5v569l87 9v-568q0 -32 9.5 -47.5t32.5 -21t68 -5.5q25 0 25 -45zM258 -194v-48l-218 -42v42l56 16q-35 30 -35 68q0 35 29.5 60t74.5 25q28 0 55 -9l-7 -53q-22 9 -53 9q-21 0 -37.5 -6t-19.5 -20
q2 -18 21.5 -32.5t58.5 -23.5z" />
    <glyph glyph-name="uniFE89" unicode="&#x626;" horiz-adv-x="694" arabic-form="isolated" 
d="M597 113q32 -19 44.5 -47t12.5 -74q0 -59 -21 -99q-45 -57 -124 -87.5t-180 -30.5q-292 0 -292 262q0 46 8 94.5t24 92.5h74q-22 -86 -22 -159q0 -98 55.5 -145.5t170.5 -47.5q78 0 136 19.5t88 53.5q6 15 6 26q0 24 -7.5 39.5t-32 28t-73.5 23.5q-63 16 -98 33.5
t-51.5 46t-16.5 74.5q0 54 29.5 99t81.5 71t116 26q58 0 115 -24l-11 -84q-26 8 -58 12t-54 4q-40 0 -73.5 -12.5t-54 -33t-22.5 -43.5q3 -22 16 -35t39.5 -23t81.5 -25q61 -16 93 -35zM226 364v-48l-218 -42v42l56 16q-35 30 -35 68q0 35 29.5 60t74.5 25q28 0 55 -9
l-7 -53q-22 9 -53 9q-21 0 -37.5 -6t-19.5 -20q2 -18 21.5 -32.5t58.5 -23.5z" />
    <glyph glyph-name="uniFE8A" unicode="&#x626;" horiz-adv-x="640" arabic-form="final" 
d="M648 1v-9q0 -61 -23 -101q-44 -55 -123.5 -85.5t-175.5 -30.5q-289 0 -289 262q0 46 8 94.5t24 92.5h74q-22 -86 -22 -159q0 -98 55.5 -145.5t166.5 -47.5q75 0 133 18.5t88 54.5q6 13 6 26q0 21 -4 34q-83 2 -164 8l14 83q106 -5 224 -5q13 0 19 -10.5t6 -34.5
q0 -39 -17 -45zM218 356v-48l-218 -42v42l56 16q-35 30 -35 68q0 35 29.5 60t74.5 25q28 0 55 -9l-7 -53q-22 9 -53 9q-21 0 -37.5 -6t-19.5 -20q2 -18 21.5 -32.5t58.5 -23.5z" />
    <glyph glyph-name="uniFE8B" unicode="&#x626;" horiz-adv-x="298" arabic-form="initial" 
d="M204 367l2 -34q8 -132 8 -178q0 -70 -12 -98q-26 -26 -83 -41.5t-119 -15.5q-13 0 -19 11t-6 35t6 34.5t19 10.5q84 0 138 20q-3 58 -16 223l-2 23zM273 490v-48l-218 -42v42l56 16q-35 30 -35 68q0 35 29.5 60t74.5 25q28 0 55 -9l-7 -53q-22 9 -53 9q-21 0 -37.5 -6
t-19.5 -20q2 -18 21.5 -32.5t58.5 -23.5z" />
    <glyph glyph-name="uniFE8C" unicode="&#x626;" horiz-adv-x="353" arabic-form="medial" 
d="M378 46q0 -46 -25 -46q-129 0 -179 72q-25 -33 -70 -52.5t-104 -19.5q-13 0 -19 11t-6 35t6 34.5t19 10.5q46 0 82.5 11.5t55.5 34.5q3 14 3 63v115l81 8v-115q0 -67 29 -92t102 -25q25 0 25 -45zM289 468v-48l-218 -42v42l56 16q-35 30 -35 68q0 35 29.5 60t74.5 25
q28 0 55 -9l-7 -53q-22 9 -53 9q-21 0 -37.5 -6t-19.5 -20q2 -18 21.5 -32.5t58.5 -23.5z" />
    <glyph glyph-name="uniFE8D" unicode="&#x627;" horiz-adv-x="289" arabic-form="isolated" 
d="M188 0h-87v724l87 9v-733z" />
    <glyph glyph-name="uniFE8E" unicode="&#x627;" horiz-adv-x="293" arabic-form="final" 
d="M318 46q0 -46 -25 -46q-73 0 -115.5 14.5t-62 48t-19.5 92.5v569l87 9v-568q0 -32 9.5 -47.5t32.5 -21t68 -5.5q25 0 25 -45z" />
    <glyph glyph-name="uniFE8F" unicode="&#x628;" horiz-adv-x="808" arabic-form="isolated" 
d="M728 367q11 -125 11 -204q0 -67 -11 -101q-48 -39 -143 -56.5t-207 -17.5q-341 0 -341 202q0 68 25 138h76q-16 -52 -16 -101q0 -51 25.5 -82.5t84.5 -47t161 -15.5q170 0 269 32q-4 96 -18 243zM335 -182q-9 42 -8 80q21 4 54 4q18 0 27 -1l-2 -80z" />
    <glyph glyph-name="uniFE90" unicode="&#x628;" horiz-adv-x="869" arabic-form="final" 
d="M894 46q0 -46 -26 -46q-131 0 -181 77q-47 -47 -130 -68t-177 -21q-176 0 -259.5 47.5t-83.5 153.5q0 67 28 138h74q-15 -57 -15 -105q0 -50 26.5 -80.5t85.5 -45t158 -14.5q89 0 156.5 15t103.5 44q3 17 3 59v93l80 8v-93q0 -66 29.5 -91.5t101.5 -25.5q26 0 26 -45z
M337 -182q-9 42 -8 80q21 4 54 4q18 0 27 -1l-2 -80z" />
    <glyph glyph-name="uniFE91" unicode="&#x628;" horiz-adv-x="298" arabic-form="initial" 
d="M204 367l2 -34q8 -132 8 -178q0 -70 -12 -98q-26 -26 -83 -41.5t-119 -15.5q-13 0 -19 11t-6 35t6 34.5t19 10.5q84 0 138 20q-3 58 -16 223l-2 23zM56 -170q-9 42 -8 80q21 4 54 4q18 0 27 -1l-2 -80z" />
    <glyph glyph-name="uniFE92" unicode="&#x628;" horiz-adv-x="353" arabic-form="medial" 
d="M378 46q0 -46 -25 -46q-129 0 -179 72q-25 -33 -70 -52.5t-104 -19.5q-13 0 -19 11t-6 35t6 34.5t19 10.5q46 0 82.5 11.5t55.5 34.5q3 14 3 63v115l81 8v-115q0 -67 29 -92t102 -25q25 0 25 -45zM124 -170q-9 42 -8 80q21 4 54 4q18 0 27 -1l-2 -80z" />
    <glyph glyph-name="uniFE93" unicode="&#x629;" horiz-adv-x="404" arabic-form="isolated" 
d="M72 31.5q-48 41.5 -48 114.5q0 62 29.5 122.5t91.5 122.5l81 9q76 -45 114 -104t38 -124q0 -34 -7.5 -66.5t-22.5 -56.5q-23 -28 -61.5 -43.5t-90.5 -15.5q-76 0 -124 41.5zM297 105q10 19 10 52q0 45 -28 84.5t-93 76.5q-94 -70 -94 -155q0 -41 31 -63.5t81 -22.5
q65 0 93 28zM214 483q-9 42 -8 80q21 4 54 4q18 0 27 -1l-2 -80zM81 479q-9 42 -8 80q21 4 54 4q18 0 27 -1l-2 -80z" />
    <glyph glyph-name="uniFE94" unicode="&#x629;" horiz-adv-x="483" arabic-form="final" 
d="M349.5 28.5q-43.5 28.5 -56.5 100.5q-48 -10 -92 -10q-84 0 -122 35t-38 91q0 61 57 123t192 106l1 50l83 9v-343q0 -42 10 -63t32.5 -28.5t66.5 -7.5q25 0 25 -45q0 -46 -25 -46q-90 0 -133.5 28.5zM290 214v177q-88 -24 -135 -58.5t-47 -67.5q0 -59 101 -59q48 0 81 8z
M360 615q-9 42 -8 80q21 4 54 4q18 0 27 -1l-2 -80zM227 611q-9 42 -8 80q21 4 54 4q18 0 27 -1l-2 -80z" />
    <glyph glyph-name="uniFE95" unicode="&#x62a;" horiz-adv-x="808" arabic-form="isolated" 
d="M728 367q11 -125 11 -204q0 -67 -11 -101q-48 -39 -143 -56.5t-207 -17.5q-341 0 -341 202q0 68 25 138h76q-16 -52 -16 -101q0 -51 25.5 -82.5t84.5 -47t161 -15.5q170 0 269 32q-4 96 -18 243zM418 424q-9 42 -8 80q21 4 54 4q18 0 27 -1l-2 -80zM285 420q-9 42 -8 80
q21 4 54 4q18 0 27 -1l-2 -80z" />
    <glyph glyph-name="uniFE96" unicode="&#x62a;" horiz-adv-x="869" arabic-form="final" 
d="M894 46q0 -46 -26 -46q-131 0 -181 77q-47 -47 -130 -68t-177 -21q-176 0 -259.5 47.5t-83.5 153.5q0 67 28 138h74q-15 -57 -15 -105q0 -50 26.5 -80.5t85.5 -45t158 -14.5q89 0 156.5 15t103.5 44q3 17 3 59v93l80 8v-93q0 -66 29.5 -91.5t101.5 -25.5q26 0 26 -45z
M418 424q-9 42 -8 80q21 4 54 4q18 0 27 -1l-2 -80zM285 420q-9 42 -8 80q21 4 54 4q18 0 27 -1l-2 -80z" />
    <glyph glyph-name="uniFE97" unicode="&#x62a;" horiz-adv-x="298" arabic-form="initial" 
d="M204 367l2 -34q8 -132 8 -178q0 -70 -12 -98q-26 -26 -83 -41.5t-119 -15.5q-13 0 -19 11t-6 35t6 34.5t19 10.5q84 0 138 20q-3 58 -16 223l-2 23zM190 449q-9 42 -8 80q21 4 54 4q18 0 27 -1l-2 -80zM57 445q-9 42 -8 80q21 4 54 4q18 0 27 -1l-2 -80z" />
    <glyph glyph-name="uniFE98" unicode="&#x62a;" horiz-adv-x="353" arabic-form="medial" 
d="M378 46q0 -46 -25 -46q-129 0 -179 72q-25 -33 -70 -52.5t-104 -19.5q-13 0 -19 11t-6 35t6 34.5t19 10.5q46 0 82.5 11.5t55.5 34.5q3 14 3 63v115l81 8v-115q0 -67 29 -92t102 -25q25 0 25 -45zM206 427q-9 42 -8 80q21 4 54 4q18 0 27 -1l-2 -80zM73 423q-9 42 -8 80
q21 4 54 4q18 0 27 -1l-2 -80z" />
    <glyph glyph-name="uniFE99" unicode="&#x62b;" horiz-adv-x="808" arabic-form="isolated" 
d="M728 367q11 -125 11 -204q0 -67 -11 -101q-48 -39 -143 -56.5t-207 -17.5q-341 0 -341 202q0 68 25 138h76q-16 -52 -16 -101q0 -51 25.5 -82.5t84.5 -47t161 -15.5q170 0 269 32q-4 96 -18 243zM359 553q-9 41 -8 76q20 4 51 4q18 0 26 -1l-2 -76zM418 424q-9 42 -8 80
q21 4 54 4q18 0 27 -1l-2 -80zM285 420q-9 42 -8 80q21 4 54 4q18 0 27 -1l-2 -80z" />
    <glyph glyph-name="uniFE9A" unicode="&#x62b;" horiz-adv-x="869" arabic-form="final" 
d="M894 46q0 -46 -26 -46q-131 0 -181 77q-47 -47 -130 -68t-177 -21q-176 0 -259.5 47.5t-83.5 153.5q0 67 28 138h74q-15 -57 -15 -105q0 -50 26.5 -80.5t85.5 -45t158 -14.5q89 0 156.5 15t103.5 44q3 17 3 59v93l80 8v-93q0 -66 29.5 -91.5t101.5 -25.5q26 0 26 -45z
M359 553q-9 41 -8 76q20 4 51 4q18 0 26 -1l-2 -76zM418 424q-9 42 -8 80q21 4 54 4q18 0 27 -1l-2 -80zM285 420q-9 42 -8 80q21 4 54 4q18 0 27 -1l-2 -80z" />
    <glyph glyph-name="uniFE9B" unicode="&#x62b;" horiz-adv-x="298" arabic-form="initial" 
d="M204 367l2 -34q8 -132 8 -178q0 -70 -12 -98q-26 -26 -83 -41.5t-119 -15.5q-13 0 -19 11t-6 35t6 34.5t19 10.5q84 0 138 20q-3 58 -16 223l-2 23zM131 578q-9 41 -8 76q20 4 51 4q18 0 26 -1l-2 -76zM190 449q-9 42 -8 80q21 4 54 4q18 0 27 -1l-2 -80zM57 445
q-9 42 -8 80q21 4 54 4q18 0 27 -1l-2 -80z" />
    <glyph glyph-name="uniFE9C" unicode="&#x62b;" horiz-adv-x="353" arabic-form="medial" 
d="M378 46q0 -46 -25 -46q-129 0 -179 72q-25 -33 -70 -52.5t-104 -19.5q-13 0 -19 11t-6 35t6 34.5t19 10.5q46 0 82.5 11.5t55.5 34.5q3 14 3 63v115l81 8v-115q0 -67 29 -92t102 -25q25 0 25 -45zM147 556q-9 41 -8 76q20 4 51 4q18 0 26 -1l-2 -76zM206 427q-9 42 -8 80
q21 4 54 4q18 0 27 -1l-2 -80zM73 423q-9 42 -8 80q21 4 54 4q18 0 27 -1l-2 -80z" />
    <glyph glyph-name="uniFE9D" unicode="&#x62c;" horiz-adv-x="616" arabic-form="isolated" 
d="M583 368v-1l-13 -86h-4q-157 -42 -254.5 -85t-146 -94t-48.5 -117q0 -84 73 -126t195 -42q70 0 160 18l-10 -78q-86 -33 -182 -33t-168.5 30t-112 85t-39.5 129q0 112 95 195t283 149q-26 8 -38 13q-63 21 -106.5 31.5t-92.5 10.5q-58 0 -125 -31l12 89q27 13 61.5 20
t66.5 7q49 0 94 -11t107 -32q64 -21 104.5 -31t85.5 -11zM326 -25q-9 43 -8 79q21 4 54 4q18 0 27 -1l-2 -79z" />
    <glyph glyph-name="uniFE9E" unicode="&#x62c;" horiz-adv-x="656" arabic-form="final" 
d="M681 46q0 -46 -25 -46q-80 0 -125 23.5t-66.5 78.5t-26.5 155q-170 -54 -245.5 -118t-75.5 -147q0 -86 71.5 -130.5t197.5 -44.5q38 0 81.5 5t77.5 13l-10 -78q-41 -16 -89.5 -24.5t-92.5 -8.5q-103 0 -175 33t-108.5 89.5t-36.5 126.5q0 113 93 200t286 153l-30 10
q-67 23 -112 34t-95 11q-58 0 -125 -31l12 89q27 13 61.5 20t66.5 7q49 0 94 -11t107 -32q65 -21 106 -31t87 -11l-13 -86l-72 -19q5 -76 20 -115t46 -54.5t91 -15.5q25 0 25 -45zM290 -34q-9 41 -8 78q21 4 53 4q19 0 27 -1l-2 -78z" />
    <glyph glyph-name="uniFE9F" unicode="&#x62c;" horiz-adv-x="632" arabic-form="initial" 
d="M590 214h-2q-82 -35 -191 -91q-86 -43 -140 -67t-119 -40t-138 -16q-13 0 -19 11t-6 35t6 34.5t19 10.5q75 0 141.5 14t124.5 36.5t149 62.5q40 18 62 27q-31 8 -80 25q-64 22 -108.5 33t-94.5 11q-58 0 -125 -31l12 89q27 13 61.5 20t66.5 7q49 0 94 -11t107 -32
q65 -21 106 -31t87 -11zM295 -105q-9 42 -8 80q21 4 54 4q18 0 27 -1l-2 -80z" />
    <glyph glyph-name="uniFEA0" unicode="&#x62c;" horiz-adv-x="676" arabic-form="medial" 
d="M701 46q0 -46 -25 -46q-76 0 -118 16t-62.5 49t-31.5 92q-13 -6 -66 -34q-86 -43 -140 -67t-119 -40t-139 -16q-13 0 -19 11t-6 35t6 34.5t19 10.5q75 0 141.5 14t124.5 36.5t149 62.5q40 18 62 27q-31 8 -80 25q-64 22 -108.5 33t-94.5 11q-58 0 -125 -31l12 89
q27 13 61.5 20t66.5 7q49 0 94 -11t107 -32q65 -21 106 -31t87 -11l-13 -86h-2q-15 -6 -52 -22l-20 -9q10 -45 21.5 -62.5t40.5 -23.5t98 -6q25 0 25 -45zM312 -111q-9 42 -8 80q21 4 54 4q18 0 27 -1l-2 -80z" />
    <glyph glyph-name="uniFEA1" unicode="&#x62d;" horiz-adv-x="616" arabic-form="isolated" 
d="M583 368v-1l-13 -86h-4q-157 -42 -254.5 -85t-146 -94t-48.5 -117q0 -84 73 -126t195 -42q70 0 160 18l-10 -78q-86 -33 -182 -33t-168.5 30t-112 85t-39.5 129q0 112 95 195t283 149q-26 8 -38 13q-63 21 -106.5 31.5t-92.5 10.5q-58 0 -125 -31l12 89q27 13 61.5 20
t66.5 7q49 0 94 -11t107 -32q64 -21 104.5 -31t85.5 -11z" />
    <glyph glyph-name="uniFEA2" unicode="&#x62d;" horiz-adv-x="656" arabic-form="final" 
d="M681 46q0 -46 -25 -46q-80 0 -125 23.5t-66.5 78.5t-26.5 155q-170 -54 -245.5 -118t-75.5 -147q0 -86 71.5 -130.5t197.5 -44.5q38 0 81.5 5t77.5 13l-10 -78q-41 -16 -89.5 -24.5t-92.5 -8.5q-103 0 -175 33t-108.5 89.5t-36.5 126.5q0 113 93 200t286 153l-30 10
q-67 23 -112 34t-95 11q-58 0 -125 -31l12 89q27 13 61.5 20t66.5 7q49 0 94 -11t107 -32q65 -21 106 -31t87 -11l-13 -86l-72 -19q5 -76 20 -115t46 -54.5t91 -15.5q25 0 25 -45z" />
    <glyph glyph-name="uniFEA3" unicode="&#x62d;" horiz-adv-x="632" arabic-form="initial" 
d="M590 214h-2q-82 -35 -191 -91q-86 -43 -140 -67t-119 -40t-138 -16q-13 0 -19 11t-6 35t6 34.5t19 10.5q75 0 141.5 14t124.5 36.5t149 62.5q40 18 62 27q-31 8 -80 25q-64 22 -108.5 33t-94.5 11q-58 0 -125 -31l12 89q27 13 61.5 20t66.5 7q49 0 94 -11t107 -32
q65 -21 106 -31t87 -11z" />
    <glyph glyph-name="uniFEA4" unicode="&#x62d;" horiz-adv-x="676" arabic-form="medial" 
d="M701 46q0 -46 -25 -46q-76 0 -118 16t-62.5 49t-31.5 92q-13 -6 -66 -34q-86 -43 -140 -67t-119 -40t-139 -16q-13 0 -19 11t-6 35t6 34.5t19 10.5q75 0 141.5 14t124.5 36.5t149 62.5q40 18 62 27q-31 8 -80 25q-64 22 -108.5 33t-94.5 11q-58 0 -125 -31l12 89
q27 13 61.5 20t66.5 7q49 0 94 -11t107 -32q65 -21 106 -31t87 -11l-13 -86h-2q-15 -6 -52 -22l-20 -9q10 -45 21.5 -62.5t40.5 -23.5t98 -6q25 0 25 -45z" />
    <glyph glyph-name="uniFEA5" unicode="&#x62e;" horiz-adv-x="616" arabic-form="isolated" 
d="M583 368v-1l-13 -86h-4q-157 -42 -254.5 -85t-146 -94t-48.5 -117q0 -84 73 -126t195 -42q70 0 160 18l-10 -78q-86 -33 -182 -33t-168.5 30t-112 85t-39.5 129q0 112 95 195t283 149q-26 8 -38 13q-63 21 -106.5 31.5t-92.5 10.5q-58 0 -125 -31l12 89q27 13 61.5 20
t66.5 7q49 0 94 -11t107 -32q64 -21 104.5 -31t85.5 -11zM232 533q-9 42 -8 80q21 4 54 4q18 0 27 -1l-2 -80z" />
    <glyph glyph-name="uniFEA6" unicode="&#x62e;" horiz-adv-x="656" arabic-form="final" 
d="M681 46q0 -46 -25 -46q-80 0 -125 23.5t-66.5 78.5t-26.5 155q-170 -54 -245.5 -118t-75.5 -147q0 -86 71.5 -130.5t197.5 -44.5q38 0 81.5 5t77.5 13l-10 -78q-41 -16 -89.5 -24.5t-92.5 -8.5q-103 0 -175 33t-108.5 89.5t-36.5 126.5q0 113 93 200t286 153l-30 10
q-67 23 -112 34t-95 11q-58 0 -125 -31l12 89q27 13 61.5 20t66.5 7q49 0 94 -11t107 -32q65 -21 106 -31t87 -11l-13 -86l-72 -19q5 -76 20 -115t46 -54.5t91 -15.5q25 0 25 -45zM233 547q-9 42 -8 80q21 4 54 4q18 0 27 -1l-2 -80z" />
    <glyph glyph-name="uniFEA7" unicode="&#x62e;" horiz-adv-x="632" arabic-form="initial" 
d="M590 214h-2q-82 -35 -191 -91q-86 -43 -140 -67t-119 -40t-138 -16q-13 0 -19 11t-6 35t6 34.5t19 10.5q75 0 141.5 14t124.5 36.5t149 62.5q40 18 62 27q-31 8 -80 25q-64 22 -108.5 33t-94.5 11q-58 0 -125 -31l12 89q27 13 61.5 20t66.5 7q49 0 94 -11t107 -32
q65 -21 106 -31t87 -11zM252 466q-9 42 -8 80q21 4 54 4q18 0 27 -1l-2 -80z" />
    <glyph glyph-name="uniFEA8" unicode="&#x62e;" horiz-adv-x="676" arabic-form="medial" 
d="M701 46q0 -46 -25 -46q-76 0 -118 16t-62.5 49t-31.5 92q-13 -6 -66 -34q-86 -43 -140 -67t-119 -40t-139 -16q-13 0 -19 11t-6 35t6 34.5t19 10.5q75 0 141.5 14t124.5 36.5t149 62.5q40 18 62 27q-31 8 -80 25q-64 22 -108.5 33t-94.5 11q-58 0 -125 -31l12 89
q27 13 61.5 20t66.5 7q49 0 94 -11t107 -32q65 -21 106 -31t87 -11l-13 -86h-2q-15 -6 -52 -22l-20 -9q10 -45 21.5 -62.5t40.5 -23.5t98 -6q25 0 25 -45zM252 466q-9 42 -8 80q21 4 54 4q18 0 27 -1l-2 -80z" />
    <glyph glyph-name="uniFEA9" unicode="&#x62f;" horiz-adv-x="456" arabic-form="isolated" 
d="M38 92q59 -10 132 -10q119 0 173 13q-5 86 -56 169.5t-143 145.5l58 68q69 -46 117.5 -109.5t72.5 -130.5t24 -128q0 -49 -7 -86q-92 -34 -251 -34q-80 0 -133 10z" />
    <glyph glyph-name="uniFEAA" unicode="&#x62f;" horiz-adv-x="498" arabic-form="final" 
d="M22 89q45 -5 98 -5q69 0 113 9t89 34l-125 342l87 9l102 -288q20 -59 45.5 -79t65.5 -20q13 0 19.5 -11t6.5 -34q0 -24 -6 -35t-20 -11q-49 0 -83 16t-58 51q-57 -41 -114 -58t-135 -17q-46 0 -85 10v87z" />
    <glyph glyph-name="uniFEAB" unicode="&#x630;" horiz-adv-x="456" arabic-form="isolated" 
d="M38 92q59 -10 132 -10q119 0 173 13q-5 86 -56 169.5t-143 145.5l58 68q69 -46 117.5 -109.5t72.5 -130.5t24 -128q0 -49 -7 -86q-92 -34 -251 -34q-80 0 -133 10zM158 565q-9 42 -8 80q21 4 54 4q18 0 27 -1l-2 -80z" />
    <glyph glyph-name="uniFEAC" unicode="&#x630;" horiz-adv-x="498" arabic-form="final" 
d="M22 89q45 -5 98 -5q69 0 113 9t89 34l-125 342l87 9l102 -288q20 -59 45.5 -79t65.5 -20q13 0 19.5 -11t6.5 -34q0 -24 -6 -35t-20 -11q-49 0 -83 16t-58 51q-57 -41 -114 -58t-135 -17q-46 0 -85 10v87zM185 555q-9 42 -8 80q21 4 54 4q18 0 27 -1l-2 -80z" />
    <glyph glyph-name="uniFEAD" unicode="&#x631;" horiz-adv-x="282" arabic-form="isolated" 
d="M-57 -225l-10 72q95 18 152 81t66 168q-7 71 -41 189l83 20q28 -104 28 -195q0 -92 -33 -169t-92.5 -122t-135.5 -45q-11 0 -17 1z" />
    <glyph glyph-name="uniFEAE" unicode="&#x631;" horiz-adv-x="319" arabic-form="final" 
d="M338 80q6 -11 6 -35q0 -25 -6 -35t-22 -10q-66 0 -103 30q-19 -113 -86.5 -184t-166.5 -71q-11 0 -17 1l-10 71q95 18 152 81t66 168q-9 59 -27 140l78 23q4 -20 11 -61q2 -8 6.5 -32.5t9.5 -36.5q10 -22 29 -30t61 -8q13 0 19 -11z" />
    <glyph glyph-name="uniFEAF" unicode="&#x632;" horiz-adv-x="282" arabic-form="isolated" 
d="M-57 -225l-10 72q95 18 152 81t66 168q-7 71 -41 189l83 20q28 -104 28 -195q0 -92 -33 -169t-92.5 -122t-135.5 -45q-11 0 -17 1zM85 386q-9 42 -8 80q21 4 54 4q18 0 27 -1l-2 -80z" />
    <glyph glyph-name="uniFEB0" unicode="&#x632;" horiz-adv-x="319" arabic-form="final" 
d="M338 80q6 -11 6 -35q0 -25 -6 -35t-22 -10q-66 0 -103 30q-19 -113 -86.5 -184t-166.5 -71q-11 0 -17 1l-10 71q95 18 152 81t66 168q-9 59 -27 140l78 23q4 -20 11 -61q2 -8 6.5 -32.5t9.5 -36.5q10 -22 29 -30t61 -8q13 0 19 -11zM94 337q-9 42 -8 80q21 4 54 4
q18 0 27 -1l-2 -80z" />
    <glyph glyph-name="uniFEB1" unicode="&#x633;" horiz-adv-x="1174" arabic-form="isolated" 
d="M1075 326q15 -89 15 -200q0 -44 -3 -69t-10 -43q-30 -20 -114 -20q-66 0 -108.5 13t-65.5 44q-21 -29 -58.5 -43t-83.5 -14q-31 0 -51.5 6t-36.5 20q-2 -80 -13 -116q-38 -39 -107.5 -60t-148.5 -21q-119 0 -186 57.5t-67 170.5q0 81 31 159h73q-20 -73 -20 -127
q0 -85 46.5 -125t142.5 -40q51 0 95.5 10t75.5 29q2 12 2 36q0 31 -4.5 107.5t-6.5 101.5l-3 48l83 9l7 -100q4 -45 24 -60t71 -15q65 0 89 24q2 15 2 62v99l81 6v-94q0 -38 13.5 -58.5t42 -28.5t79.5 -8q34 0 50 5q-1 115 -20 225z" />
    <glyph glyph-name="uniFEB2" unicode="&#x633;" horiz-adv-x="1212" arabic-form="final" 
d="M1237 46q0 -46 -25 -46q-55 0 -89 10t-62 37q-23 -26 -60.5 -39t-80.5 -13q-95 0 -134 52q-20 -27 -57 -40.5t-80 -13.5q-29 0 -51 6t-38 20q-3 -81 -14 -115q-38 -39 -107.5 -60t-148.5 -21q-119 0 -186 57.5t-67 170.5q0 81 31 159h73q-20 -73 -20 -127
q0 -86 45.5 -125.5t140.5 -39.5q52 0 97.5 10t76.5 30q2 11 2 35q0 28 -11 213l-3 45l83 10l7 -104q4 -44 23.5 -58.5t70.5 -14.5q61 0 90 21q2 16 2 63v102l80 6v-97q0 -55 23.5 -74t78.5 -19q59 0 82 19q2 18 2 76v108l81 7v-97q0 -47 10 -69.5t34.5 -30.5t75.5 -8
q25 0 25 -45z" />
    <glyph glyph-name="uniFEB3" unicode="&#x633;" horiz-adv-x="814" arabic-form="initial" 
d="M716 326q14 -90 14 -201q0 -45 -2.5 -70t-9.5 -41q-29 -21 -114 -21q-65 0 -108 14t-67 44q-20 -28 -58.5 -42t-88.5 -14q-92 0 -128 53q-40 -48 -154 -48q-13 0 -19 11t-6 35t6 34.5t19 10.5q86 0 112 20q6 12 6 42v101l82 7v-96q0 -47 21.5 -64t72.5 -17q35 0 56 5.5
t31 18.5q4 16 4 58v104l81 7v-100q0 -37 13.5 -57t42.5 -27.5t80 -7.5q34 0 50 5q-1 110 -21 226z" />
    <glyph glyph-name="uniFEB4" unicode="&#x633;" horiz-adv-x="852" arabic-form="medial" 
d="M877 46q0 -46 -26 -46q-56 0 -90 9.5t-61 37.5q-23 -26 -60.5 -39.5t-80.5 -13.5q-96 0 -134 55q-21 -27 -60 -40t-84 -13q-90 0 -128 53q-40 -49 -153 -49q-13 0 -19 11t-6 35t6 34.5t19 10.5q86 0 112 20q6 12 6 42v101l82 7v-95q0 -47 21.5 -64t71.5 -17q62 0 90 21
q2 15 2 62l-1 102l81 6v-97q0 -55 23 -74.5t78 -19.5q57 0 82 19q2 18 2 77v110l81 8v-100q0 -47 10 -69.5t34.5 -30.5t75.5 -8q26 0 26 -45z" />
    <glyph glyph-name="uniFEB5" unicode="&#x634;" horiz-adv-x="1174" arabic-form="isolated" 
d="M1075 326q15 -89 15 -200q0 -44 -3 -69t-10 -43q-30 -20 -114 -20q-66 0 -108.5 13t-65.5 44q-21 -29 -58.5 -43t-83.5 -14q-31 0 -51.5 6t-36.5 20q-2 -80 -13 -116q-38 -39 -107.5 -60t-148.5 -21q-119 0 -186 57.5t-67 170.5q0 81 31 159h73q-20 -73 -20 -127
q0 -85 46.5 -125t142.5 -40q51 0 95.5 10t75.5 29q2 12 2 36q0 31 -4.5 107.5t-6.5 101.5l-3 48l83 9l7 -100q4 -45 24 -60t71 -15q65 0 89 24q2 15 2 62v99l81 6v-94q0 -38 13.5 -58.5t42 -28.5t79.5 -8q34 0 50 5q-1 115 -20 225zM759 500q-9 41 -8 76q20 4 51 4
q18 0 26 -1l-2 -76zM818 371q-9 42 -8 80q21 4 54 4q18 0 27 -1l-2 -80zM685 367q-9 42 -8 80q21 4 54 4q18 0 27 -1l-2 -80z" />
    <glyph glyph-name="uniFEB6" unicode="&#x634;" horiz-adv-x="1212" arabic-form="final" 
d="M1237 46q0 -46 -25 -46q-55 0 -89 10t-62 37q-23 -26 -60.5 -39t-80.5 -13q-95 0 -134 52q-20 -27 -57 -40.5t-80 -13.5q-29 0 -51 6t-38 20q-3 -81 -14 -115q-38 -39 -107.5 -60t-148.5 -21q-119 0 -186 57.5t-67 170.5q0 81 31 159h73q-20 -73 -20 -127
q0 -86 45.5 -125.5t140.5 -39.5q52 0 97.5 10t76.5 30q2 11 2 35q0 28 -11 213l-3 45l83 10l7 -104q4 -44 23.5 -58.5t70.5 -14.5q61 0 90 21q2 16 2 63v102l80 6v-97q0 -55 23.5 -74t78.5 -19q59 0 82 19q2 18 2 76v108l81 7v-97q0 -47 10 -69.5t34.5 -30.5t75.5 -8
q25 0 25 -45zM752 489q-9 41 -8 76q20 4 51 4q18 0 26 -1l-2 -76zM811 360q-9 42 -8 80q21 4 54 4q18 0 27 -1l-2 -80zM678 356q-9 42 -8 80q21 4 54 4q18 0 27 -1l-2 -80z" />
    <glyph glyph-name="uniFEB7" unicode="&#x634;" horiz-adv-x="814" arabic-form="initial" 
d="M716 326q14 -90 14 -201q0 -45 -2.5 -70t-9.5 -41q-29 -21 -114 -21q-65 0 -108 14t-67 44q-20 -28 -58.5 -42t-88.5 -14q-92 0 -128 53q-40 -48 -154 -48q-13 0 -19 11t-6 35t6 34.5t19 10.5q86 0 112 20q6 12 6 42v101l82 7v-96q0 -47 21.5 -64t72.5 -17q35 0 56 5.5
t31 18.5q4 16 4 58v104l81 7v-100q0 -37 13.5 -57t42.5 -27.5t80 -7.5q34 0 50 5q-1 110 -21 226zM396 493q-9 41 -8 76q20 4 51 4q18 0 26 -1l-2 -76zM455 364q-9 42 -8 80q21 4 54 4q18 0 27 -1l-2 -80zM322 360q-9 42 -8 80q21 4 54 4q18 0 27 -1l-2 -80z" />
    <glyph glyph-name="uniFEB8" unicode="&#x634;" horiz-adv-x="852" arabic-form="medial" 
d="M877 46q0 -46 -26 -46q-56 0 -90 9.5t-61 37.5q-23 -26 -60.5 -39.5t-80.5 -13.5q-96 0 -134 55q-21 -27 -60 -40t-84 -13q-90 0 -128 53q-40 -49 -153 -49q-13 0 -19 11t-6 35t6 34.5t19 10.5q86 0 112 20q6 12 6 42v101l82 7v-95q0 -47 21.5 -64t71.5 -17q62 0 90 21
q2 15 2 62l-1 102l81 6v-97q0 -55 23 -74.5t78 -19.5q57 0 82 19q2 18 2 77v110l81 8v-100q0 -47 10 -69.5t34.5 -30.5t75.5 -8q26 0 26 -45zM394 491q-9 41 -8 76q20 4 51 4q18 0 26 -1l-2 -76zM453 362q-9 42 -8 80q21 4 54 4q18 0 27 -1l-2 -80zM320 358q-9 42 -8 80
q21 4 54 4q18 0 27 -1l-2 -80z" />
    <glyph glyph-name="uniFEB9" unicode="&#x635;" horiz-adv-x="1162" arabic-form="isolated" 
d="M1068.5 294.5q48.5 -54.5 48.5 -148.5q0 -68 -19 -97q-41 -26 -129.5 -40.5t-185.5 -14.5q-86 0 -137 12t-80 42v-1q0 -106 -17 -143q-37 -39 -107 -60t-152 -21q-119 0 -186 57.5t-67 170.5q0 81 31 159h73q-20 -73 -20 -126q0 -86 45 -125.5t139 -39.5q52 0 98 9.5
t80 28.5v36q0 53 -13 259l87 10q7 -96 39 -133q108 123 183.5 171.5t152.5 48.5q88 0 136.5 -54.5zM1044 122q0 68 -34.5 102.5t-99.5 34.5q-57 0 -118 -36.5t-141 -126.5q24 -7 56 -9t85 -2q143 0 250 23q2 5 2 14z" />
    <glyph glyph-name="uniFEBA" unicode="&#x635;" horiz-adv-x="1205" arabic-form="final" 
d="M1223.5 80q6.5 -11 6.5 -34q0 -24 -6 -35t-20 -11q-54 0 -96 4t-89 15q-49 -12 -111 -18.5t-125 -6.5q-86 0 -137 12t-80 42v-1q0 -106 -17 -143q-37 -39 -107 -60t-152 -21q-119 0 -186 57.5t-67 170.5q0 81 31 159h73q-20 -73 -20 -126q0 -86 45 -125.5t139 -39.5
q52 0 98 9.5t80 28.5v36q0 53 -13 259l87 10q7 -96 39 -133q108 123 183.5 171.5t152.5 48.5q88 0 136.5 -54.5t48.5 -148.5q0 -31 -4 -52q29 -3 91 -3q13 0 19.5 -11zM707 87q32 -2 85 -2q143 0 250 23q2 5 2 14q0 68 -34.5 102.5t-99.5 34.5q-57 0 -118 -36.5t-141 -126.5
q24 -7 56 -9z" />
    <glyph glyph-name="uniFEBB" unicode="&#x635;" horiz-adv-x="820" arabic-form="initial" 
d="M726.5 292.5q48.5 -54.5 48.5 -148.5q0 -68 -19 -97q-41 -26 -129.5 -40.5t-185.5 -14.5l9 91q143 0 250 23q2 5 2 14q0 68 -34.5 102.5t-99.5 34.5q-58 0 -119 -37t-143 -129q49 -8 143 -8l-9 -91q-117 0 -183.5 16.5t-96.5 50.5q-22 -28 -63 -43.5t-97 -15.5
q-13 0 -19 11t-6 35t6 34.5t19 10.5q36 0 68 7t47 21q3 11 3 50v91l81 9v-84q0 -26 10 -44t31 -30q78 90 137.5 141.5t109.5 73t103 21.5q88 0 136.5 -54.5z" />
    <glyph glyph-name="uniFEBC" unicode="&#x635;" horiz-adv-x="862" arabic-form="medial" 
d="M880.5 80q6.5 -11 6.5 -34q0 -24 -6 -35t-20 -11q-51 0 -91.5 3.5t-86.5 14.5q-49 -12 -113.5 -19t-128.5 -7l9 91q143 0 250 23q2 5 2 14q0 68 -34.5 102.5t-99.5 34.5q-58 0 -119 -37t-143 -129q49 -8 143 -8l-9 -91q-117 0 -183.5 16.5t-96.5 50.5q-22 -28 -63 -43.5
t-97 -15.5q-13 0 -19 11t-6 35t6 34.5t19 10.5q36 0 68 7t47 21q3 11 3 50v91l81 9v-84q0 -26 10 -44t31 -30q78 90 137.5 141.5t109.5 73t103 21.5q88 0 136.5 -54.5t48.5 -148.5q0 -26 -3 -50q28 -3 89 -3q13 0 19.5 -11z" />
    <glyph glyph-name="uniFEBD" unicode="&#x636;" horiz-adv-x="1162" arabic-form="isolated" 
d="M1068.5 294.5q48.5 -54.5 48.5 -148.5q0 -68 -19 -97q-41 -26 -129.5 -40.5t-185.5 -14.5q-86 0 -137 12t-80 42v-1q0 -106 -17 -143q-37 -39 -107 -60t-152 -21q-119 0 -186 57.5t-67 170.5q0 81 31 159h73q-20 -73 -20 -126q0 -86 45 -125.5t139 -39.5q52 0 98 9.5
t80 28.5v36q0 53 -13 259l87 10q7 -96 39 -133q108 123 183.5 171.5t152.5 48.5q88 0 136.5 -54.5zM1044 122q0 68 -34.5 102.5t-99.5 34.5q-57 0 -118 -36.5t-141 -126.5q24 -7 56 -9t85 -2q143 0 250 23q2 5 2 14zM872 430q-9 42 -8 80q21 4 54 4q18 0 27 -1l-2 -80z" />
    <glyph glyph-name="uniFEBE" unicode="&#x636;" horiz-adv-x="1205" arabic-form="final" 
d="M1223.5 80q6.5 -11 6.5 -34q0 -24 -6 -35t-20 -11q-54 0 -96 4t-89 15q-49 -12 -111 -18.5t-125 -6.5q-86 0 -137 12t-80 42v-1q0 -106 -17 -143q-37 -39 -107 -60t-152 -21q-119 0 -186 57.5t-67 170.5q0 81 31 159h73q-20 -73 -20 -126q0 -86 45 -125.5t139 -39.5
q52 0 98 9.5t80 28.5v36q0 53 -13 259l87 10q7 -96 39 -133q108 123 183.5 171.5t152.5 48.5q88 0 136.5 -54.5t48.5 -148.5q0 -31 -4 -52q29 -3 91 -3q13 0 19.5 -11zM707 87q32 -2 85 -2q143 0 250 23q2 5 2 14q0 68 -34.5 102.5t-99.5 34.5q-57 0 -118 -36.5t-141 -126.5
q24 -7 56 -9zM872 430q-9 42 -8 80q21 4 54 4q18 0 27 -1l-2 -80z" />
    <glyph glyph-name="uniFEBF" unicode="&#x636;" horiz-adv-x="820" arabic-form="initial" 
d="M726.5 292.5q48.5 -54.5 48.5 -148.5q0 -68 -19 -97q-41 -26 -129.5 -40.5t-185.5 -14.5l9 91q143 0 250 23q2 5 2 14q0 68 -34.5 102.5t-99.5 34.5q-58 0 -119 -37t-143 -129q49 -8 143 -8l-9 -91q-117 0 -183.5 16.5t-96.5 50.5q-22 -28 -63 -43.5t-97 -15.5
q-13 0 -19 11t-6 35t6 34.5t19 10.5q36 0 68 7t47 21q3 11 3 50v91l81 9v-84q0 -26 10 -44t31 -30q78 90 137.5 141.5t109.5 73t103 21.5q88 0 136.5 -54.5zM530 428q-9 42 -8 80q21 4 54 4q18 0 27 -1l-2 -80z" />
    <glyph glyph-name="uniFEC0" unicode="&#x636;" horiz-adv-x="862" arabic-form="medial" 
d="M880.5 80q6.5 -11 6.5 -34q0 -24 -6 -35t-20 -11q-51 0 -91.5 3.5t-86.5 14.5q-49 -12 -113.5 -19t-128.5 -7l9 91q143 0 250 23q2 5 2 14q0 68 -34.5 102.5t-99.5 34.5q-58 0 -119 -37t-143 -129q49 -8 143 -8l-9 -91q-117 0 -183.5 16.5t-96.5 50.5q-22 -28 -63 -43.5
t-97 -15.5q-13 0 -19 11t-6 35t6 34.5t19 10.5q36 0 68 7t47 21q3 11 3 50v91l81 9v-84q0 -26 10 -44t31 -30q78 90 137.5 141.5t109.5 73t103 21.5q88 0 136.5 -54.5t48.5 -148.5q0 -26 -3 -50q28 -3 89 -3q13 0 19.5 -11zM530 428q-9 42 -8 80q21 4 54 4q18 0 27 -1
l-2 -80z" />
    <glyph glyph-name="uniFEC1" unicode="&#x637;" horiz-adv-x="695" arabic-form="isolated" 
d="M601.5 300.5q48.5 -54.5 48.5 -148.5q0 -68 -19 -97q-41 -26 -129.5 -40.5t-185.5 -14.5q-162 0 -287 16l-25 84q45 -4 90 -6q35 42 66 75v555l84 9v-336q0 -91 -6 -149q64 58 117.5 82.5t109.5 24.5q88 0 136.5 -54.5zM577 128q0 68 -34.5 102.5t-99.5 34.5
q-59 0 -121.5 -39t-146.5 -134q46 -1 150 -1q143 0 250 23q2 5 2 14z" />
    <glyph glyph-name="uniFEC2" unicode="&#x637;" horiz-adv-x="738" arabic-form="final" 
d="M756.5 80q6.5 -11 6.5 -34q0 -24 -6 -35t-20 -11q-56 0 -99.5 4.5t-98.5 17.5q-95 -22 -223 -22q-162 0 -287 16l-25 84q45 -4 90 -6q35 42 66 75v555l84 9v-336q0 -91 -6 -149q64 58 117.5 82.5t109.5 24.5q88 0 136.5 -54.5t48.5 -148.5q0 -37 -5 -58q29 -3 92 -3
q13 0 19.5 -11zM325 91q143 0 250 23q2 5 2 14q0 68 -34.5 102.5t-99.5 34.5q-59 0 -121.5 -39t-146.5 -134q46 -1 150 -1z" />
    <glyph glyph-name="uniFEC3" unicode="&#x637;" horiz-adv-x="631" arabic-form="initial" 
d="M537.5 300.5q48.5 -54.5 48.5 -148.5q0 -68 -19 -97q-41 -26 -129.5 -40.5t-185.5 -14.5h-252q-13 0 -19 11t-6 35t6 34.5t19 10.5h28q44 53 73 84v552l84 9v-336q0 -91 -6 -147q63 55 115 78.5t107 23.5q88 0 136.5 -54.5zM513 128q0 68 -34.5 102.5t-99.5 34.5
q-60 0 -122 -39t-147 -135h151q143 0 250 23q2 5 2 14z" />
    <glyph glyph-name="uniFEC4" unicode="&#x637;" horiz-adv-x="675" arabic-form="medial" 
d="M700 46q0 -46 -26 -46q-59 0 -103 4.5t-96 17.5q-95 -22 -223 -22h-252q-13 0 -19 11t-6 35t6 34.5t19 10.5h28q44 53 73 84v552l84 9v-336q0 -91 -6 -147q63 55 115 78.5t107 23.5q88 0 136.5 -54.5t48.5 -148.5q0 -37 -5 -58q29 -3 93 -3q26 0 26 -45zM261 91
q143 0 250 23q2 5 2 14q0 68 -34.5 102.5t-99.5 34.5q-60 0 -122 -39t-147 -135h151z" />
    <glyph glyph-name="uniFEC5" unicode="&#x638;" horiz-adv-x="695" arabic-form="isolated" 
d="M601.5 300.5q48.5 -54.5 48.5 -148.5q0 -68 -19 -97q-41 -26 -129.5 -40.5t-185.5 -14.5q-162 0 -287 16l-25 84q45 -4 90 -6q35 42 66 75v555l84 9v-336q0 -91 -6 -149q64 58 117.5 82.5t109.5 24.5q88 0 136.5 -54.5zM577 128q0 68 -34.5 102.5t-99.5 34.5
q-59 0 -121.5 -39t-146.5 -134q46 -1 150 -1q143 0 250 23q2 5 2 14zM405 436q-9 42 -8 80q21 4 54 4q18 0 27 -1l-2 -80z" />
    <glyph glyph-name="uniFEC6" unicode="&#x638;" horiz-adv-x="738" arabic-form="final" 
d="M756.5 80q6.5 -11 6.5 -34q0 -24 -6 -35t-20 -11q-56 0 -99.5 4.5t-98.5 17.5q-95 -22 -223 -22q-162 0 -287 16l-25 84q45 -4 90 -6q35 42 66 75v555l84 9v-336q0 -91 -6 -149q64 58 117.5 82.5t109.5 24.5q88 0 136.5 -54.5t48.5 -148.5q0 -37 -5 -58q29 -3 92 -3
q13 0 19.5 -11zM325 91q143 0 250 23q2 5 2 14q0 68 -34.5 102.5t-99.5 34.5q-59 0 -121.5 -39t-146.5 -134q46 -1 150 -1zM405 436q-9 42 -8 80q21 4 54 4q18 0 27 -1l-2 -80z" />
    <glyph glyph-name="uniFEC7" unicode="&#x638;" horiz-adv-x="631" arabic-form="initial" 
d="M537.5 300.5q48.5 -54.5 48.5 -148.5q0 -68 -19 -97q-41 -26 -129.5 -40.5t-185.5 -14.5h-252q-13 0 -19 11t-6 35t6 34.5t19 10.5h28q44 53 73 84v552l84 9v-336q0 -91 -6 -147q63 55 115 78.5t107 23.5q88 0 136.5 -54.5zM513 128q0 68 -34.5 102.5t-99.5 34.5
q-60 0 -122 -39t-147 -135h151q143 0 250 23q2 5 2 14zM341 436q-9 42 -8 80q21 4 54 4q18 0 27 -1l-2 -80z" />
    <glyph glyph-name="uniFEC8" unicode="&#x638;" horiz-adv-x="675" arabic-form="medial" 
d="M700 46q0 -46 -26 -46q-59 0 -103 4.5t-96 17.5q-95 -22 -223 -22h-252q-13 0 -19 11t-6 35t6 34.5t19 10.5h28q44 53 73 84v552l84 9v-336q0 -91 -6 -147q63 55 115 78.5t107 23.5q88 0 136.5 -54.5t48.5 -148.5q0 -37 -5 -58q29 -3 93 -3q26 0 26 -45zM261 91
q143 0 250 23q2 5 2 14q0 68 -34.5 102.5t-99.5 34.5q-60 0 -122 -39t-147 -135h151zM341 436q-9 42 -8 80q21 4 54 4q18 0 27 -1l-2 -80z" />
    <glyph glyph-name="uniFEC9" unicode="&#x639;" horiz-adv-x="472" arabic-form="isolated" 
d="M486 -167l-4 -79q-77 -30 -167 -30q-92 0 -160.5 30.5t-105.5 83.5t-37 117q0 67 38.5 126.5t113.5 101.5q-51 32 -79.5 81.5t-28.5 97.5q0 51 30 92t78 64.5t99 23.5q52 0 110 -25l-10 -83q-26 9 -55 13t-49 4q-45 0 -81.5 -19.5t-47.5 -56.5q0 -42 32.5 -81.5
t94.5 -58.5q36 11 77 22t78 18l-6 -85q-159 -33 -235.5 -90t-76.5 -128q0 -77 71.5 -116t179.5 -39q73 0 141 16z" />
    <glyph glyph-name="uniFECA" unicode="&#x639;" horiz-adv-x="554" arabic-form="final" 
d="M161.5 -252q-63.5 24 -101 71t-37.5 111q0 60 46.5 116t144.5 116l-127 136l-32 21l11 75q46 20 106.5 31.5t114.5 11.5q57 0 115.5 -13.5t77.5 -37.5q8 -14 8 -43q0 -47 -43 -95.5t-111 -92.5q34 -29 63 -42.5t63.5 -17.5t92.5 -4q26 0 26 -45q0 -46 -26 -46
q-63 0 -108.5 9t-88.5 33t-95 69q-88 -52 -123 -86t-35 -75q0 -39 26.5 -69t76.5 -47t118 -17q81 0 156 18l-8 -78q-85 -33 -171 -33q-76 0 -139.5 24zM280 199q51 32 90.5 68.5t45.5 62.5q-24 11 -62 17t-79 6q-70 0 -124 -19z" />
    <glyph glyph-name="uniFECB" unicode="&#x639;" horiz-adv-x="514" arabic-form="initial" 
d="M460 170l-6 -90q-103 -38 -208 -59t-246 -21q-13 0 -19 11t-6 35t6 34.5t19 10.5q89 0 156 7q-36 32 -54.5 69t-18.5 77q0 52 28.5 93.5t75.5 65t98 23.5q54 0 118 -25l-11 -83q-28 8 -59.5 12t-52.5 4q-43 0 -78.5 -18t-46.5 -53q2 -91 129 -145q86 19 176 52z" />
    <glyph glyph-name="uniFECC" unicode="&#x639;" horiz-adv-x="531" arabic-form="medial" 
d="M-19 11q-6 11 -6 35t6 34.5t19 10.5q71 0 115 8t92 28l-126 133l-32 21l11 75q45 20 106.5 31.5t116.5 11.5q58 0 115.5 -14t76.5 -38q8 -14 8 -43q0 -78 -138 -184q30 -19 64 -24t121 -5q13 0 19.5 -11t6.5 -34q0 -24 -6 -35t-20 -11q-100 0 -154 13.5t-110 52.5
q-71 -35 -130 -50.5t-136 -15.5q-13 0 -19 11zM280 159q48 31 86 69t45 63q-25 12 -62.5 18t-78.5 6q-71 0 -124 -19z" />
    <glyph glyph-name="uniFECD" unicode="&#x63a;" horiz-adv-x="472" arabic-form="isolated" 
d="M486 -167l-4 -79q-77 -30 -167 -30q-92 0 -160.5 30.5t-105.5 83.5t-37 117q0 67 38.5 126.5t113.5 101.5q-51 32 -79.5 81.5t-28.5 97.5q0 51 30 92t78 64.5t99 23.5q52 0 110 -25l-10 -83q-26 9 -55 13t-49 4q-45 0 -81.5 -19.5t-47.5 -56.5q0 -42 32.5 -81.5
t94.5 -58.5q36 11 77 22t78 18l-6 -85q-159 -33 -235.5 -90t-76.5 -128q0 -77 71.5 -116t179.5 -39q73 0 141 16zM230 623q-9 42 -8 80q21 4 54 4q18 0 27 -1l-2 -80z" />
    <glyph glyph-name="uniFECE" unicode="&#x63a;" horiz-adv-x="554" arabic-form="final" 
d="M161.5 -252q-63.5 24 -101 71t-37.5 111q0 60 46.5 116t144.5 116l-127 136l-32 21l11 75q46 20 106.5 31.5t114.5 11.5q57 0 115.5 -13.5t77.5 -37.5q8 -14 8 -43q0 -47 -43 -95.5t-111 -92.5q34 -29 63 -42.5t63.5 -17.5t92.5 -4q26 0 26 -45q0 -46 -26 -46
q-63 0 -108.5 9t-88.5 33t-95 69q-88 -52 -123 -86t-35 -75q0 -39 26.5 -69t76.5 -47t118 -17q81 0 156 18l-8 -78q-85 -33 -171 -33q-76 0 -139.5 24zM280 199q51 32 90.5 68.5t45.5 62.5q-24 11 -62 17t-79 6q-70 0 -124 -19zM254 518q-9 42 -8 80q21 4 54 4q18 0 27 -1
l-2 -80z" />
    <glyph glyph-name="uniFECF" unicode="&#x63a;" horiz-adv-x="514" arabic-form="initial" 
d="M460 170l-6 -90q-103 -38 -208 -59t-246 -21q-13 0 -19 11t-6 35t6 34.5t19 10.5q89 0 156 7q-36 32 -54.5 69t-18.5 77q0 52 28.5 93.5t75.5 65t98 23.5q54 0 118 -25l-11 -83q-28 8 -59.5 12t-52.5 4q-43 0 -78.5 -18t-46.5 -53q2 -91 129 -145q86 19 176 52zM252 507
q-9 42 -8 80q21 4 54 4q18 0 27 -1l-2 -80z" />
    <glyph glyph-name="uniFED0" unicode="&#x63a;" horiz-adv-x="531" arabic-form="medial" 
d="M-19 11q-6 11 -6 35t6 34.5t19 10.5q71 0 115 8t92 28l-126 133l-32 21l11 75q45 20 106.5 31.5t116.5 11.5q58 0 115.5 -14t76.5 -38q8 -14 8 -43q0 -78 -138 -184q30 -19 64 -24t121 -5q13 0 19.5 -11t6.5 -34q0 -24 -6 -35t-20 -11q-100 0 -154 13.5t-110 52.5
q-71 -35 -130 -50.5t-136 -15.5q-13 0 -19 11zM280 159q48 31 86 69t45 63q-25 12 -62.5 18t-78.5 6q-71 0 -124 -19zM250 480q-9 42 -8 80q21 4 54 4q18 0 27 -1l-2 -80z" />
    <glyph glyph-name="uniFED1" unicode="&#x641;" horiz-adv-x="821" arabic-form="isolated" 
d="M630 590l-70 -3q-9 42 -8 79q21 4 53 4q19 0 27 -1zM678.5 477q39.5 -30 64 -88.5t24.5 -138.5q0 -73 -11 -137t-25 -77q-41 -24 -140.5 -40.5t-217.5 -16.5q-336 0 -336 203q0 67 25 137h76q-16 -52 -16 -101q0 -51 25 -82.5t84 -47t160 -15.5q93 0 171.5 7.5
t119.5 19.5q8 56 9 76q-91 1 -147 13t-85 42t-29 86q0 46 19.5 90t56.5 72t87 28q46 0 85.5 -30zM540.5 277q45.5 -16 151.5 -17q-4 76 -37.5 117t-76.5 41q-41 0 -62 -26t-21 -58q0 -41 45.5 -57z" />
    <glyph glyph-name="uniFED2" unicode="&#x641;" horiz-adv-x="899" arabic-form="final" 
d="M117 38q-80 50 -80 150q0 69 25 140h76q-16 -53 -16 -104q0 -74 54 -108t179 -34q74 1 118 4.5t94 13.5q-73 48 -73 125q0 48 22 92t61 71t85 27q44 0 82.5 -23t61 -62.5t22.5 -85.5q0 -42 -20 -76.5t-59 -65.5q57 -12 118 -12h32q13 0 19 -10.5t6 -34.5t-6 -35t-19 -11
q-78 1 -138 10t-115 34q-76 -30 -144.5 -42.5t-161.5 -12.5q-143 0 -223 50zM732 173.5q19 23.5 19 54.5q0 44 -31.5 71.5t-71.5 27.5q-36 0 -60.5 -25.5t-24.5 -62.5q0 -33 25.5 -58t79.5 -52q45 21 64 44.5zM629 496q-9 42 -8 80q21 4 54 4q18 0 27 -1l-2 -80z" />
    <glyph glyph-name="uniFED3" unicode="&#x641;" horiz-adv-x="455" arabic-form="initial" 
d="M263 589l-70 -3q-9 42 -8 79q21 4 53 4q19 0 27 -1zM312 476q40 -30 64.5 -88.5t24.5 -141.5q0 -76 -10.5 -143t-24.5 -78q-21 -12 -86.5 -18.5t-153.5 -6.5h-126q-13 0 -19 11t-6 35t6 34.5t19 10.5h137q122 0 179 7q7 47 9 77q-91 1 -147 13t-85.5 42.5t-29.5 86.5
q0 46 19.5 90t56.5 71.5t87 27.5q46 0 86 -30zM174.5 276q45.5 -16 151.5 -17q-3 51 -20 87t-42 53.5t-52 17.5q-41 0 -62 -26t-21 -58q0 -41 45.5 -57z" />
    <glyph glyph-name="uniFED4" unicode="&#x641;" horiz-adv-x="478" arabic-form="medial" 
d="M-19 10q-6 10 -6 35q0 24 6 35t19 11q86 1 142 9q-70 47 -70 122q0 48 22 92t61 71t85 27q44 0 82.5 -23t61 -62t22.5 -85q0 -42 -19 -76t-58 -65q53 -10 116 -10h32q13 0 19.5 -11t6.5 -34q0 -24 -6 -35t-20 -11q-76 1 -138 9.5t-115 29.5q-55 -21 -106 -30t-117 -9
q-14 0 -20 10zM310 171q19 23 19 54q0 44 -32 72t-71 28q-36 0 -61 -26t-25 -62q0 -33 25.5 -58t80.5 -53q45 22 64 45zM207 493q-9 42 -8 80q21 4 54 4q18 0 27 -1l-2 -80z" />
    <glyph glyph-name="uniFED5" unicode="&#x642;" horiz-adv-x="668" arabic-form="isolated" 
d="M541.5 314q40.5 -31 65.5 -90t25 -140q0 -69 -13.5 -127t-32.5 -86q-32 -37 -94.5 -66.5t-166.5 -29.5q-146 0 -217 67t-71 191q0 94 31 184h74q-21 -82 -21 -155q0 -97 55.5 -143.5t171.5 -46.5q130 0 195 65q8 42 11 65q-95 2 -151 14t-84.5 43t-28.5 89q0 49 19.5 94
t57 74t87.5 29q47 0 87.5 -31zM401 107.5q46 -16.5 155 -17.5q-3 54 -20 91t-42.5 55.5t-53.5 18.5q-42 0 -63.5 -27.5t-21.5 -61.5q0 -42 46 -58.5zM482 432q-9 42 -8 80q21 4 54 4q18 0 27 -1l-2 -80zM349 428q-9 42 -8 80q21 4 54 4q18 0 27 -1l-2 -80z" />
    <glyph glyph-name="uniFED6" unicode="&#x642;" horiz-adv-x="695" arabic-form="final" 
d="M694 91q13 0 19.5 -11t6.5 -34q0 -24 -6 -35t-20 -11h-68q-6 -43 -16.5 -76.5t-23.5 -52.5q-32 -37 -94.5 -66.5t-166.5 -29.5q-146 0 -217 67t-71 191q0 94 31 184h74q-21 -82 -21 -155q0 -97 55.5 -143.5t171.5 -46.5q130 0 195 65q8 42 11 65q-95 2 -151 14t-84.5 43
t-28.5 89q0 49 19.5 94t57 74t87.5 29q46 0 86.5 -30t65.5 -87.5t26 -136.5h62zM401 107.5q46 -16.5 155 -17.5q-3 54 -20 91t-42.5 55.5t-53.5 18.5q-42 0 -63.5 -27.5t-21.5 -61.5q0 -42 46 -58.5zM482 432q-9 42 -8 80q21 4 54 4q18 0 27 -1l-2 -80zM349 428q-9 42 -8 80
q21 4 54 4q18 0 27 -1l-2 -80z" />
    <glyph glyph-name="uniFED7" unicode="&#x642;" horiz-adv-x="455" arabic-form="initial" 
d="M312 476q40 -30 64.5 -88.5t24.5 -141.5q0 -76 -10.5 -143t-24.5 -78q-21 -12 -86.5 -18.5t-153.5 -6.5h-126q-13 0 -19 11t-6 35t6 34.5t19 10.5h137q122 0 179 7q7 47 9 77q-91 1 -147 13t-85.5 42.5t-29.5 86.5q0 46 19.5 90t56.5 71.5t87 27.5q46 0 86 -30z
M174.5 276q45.5 -16 151.5 -17q-3 51 -20 87t-42 53.5t-52 17.5q-41 0 -62 -26t-21 -58q0 -41 45.5 -57zM254 593q-9 42 -8 80q21 4 54 4q18 0 27 -1l-2 -80zM121 589q-9 42 -8 80q21 4 54 4q18 0 27 -1l-2 -80z" />
    <glyph glyph-name="uniFED8" unicode="&#x642;" horiz-adv-x="478" arabic-form="medial" 
d="M-19 10q-6 10 -6 35q0 24 6 35t19 11q86 1 142 9q-70 47 -70 122q0 48 22 92t61 71t85 27q44 0 82.5 -23t61 -62t22.5 -85q0 -42 -19 -76t-58 -65q53 -10 116 -10h32q13 0 19.5 -11t6.5 -34q0 -24 -6 -35t-20 -11q-76 1 -138 9.5t-115 29.5q-55 -21 -106 -30t-117 -9
q-14 0 -20 10zM310 171q19 23 19 54q0 44 -32 72t-71 28q-36 0 -61 -26t-25 -62q0 -33 25.5 -58t80.5 -53q45 22 64 45zM268 499q-9 42 -8 80q21 4 54 4q18 0 27 -1l-2 -80zM135 495q-9 42 -8 80q21 4 54 4q18 0 27 -1l-2 -80z" />
    <glyph glyph-name="uniFED9" unicode="&#x643;" horiz-adv-x="773" arabic-form="isolated" 
d="M590 724l86 9v-542q0 -85 -11 -129q-44 -39 -132.5 -56.5t-189.5 -17.5q-157 0 -231.5 43t-74.5 148q0 60 25 126h76q-16 -51 -16 -98t22 -74t72.5 -39t139.5 -12q144 0 233 27q1 21 1 61v554zM331 319q-46 0 -63 2v44h147l-124 100v48l169 72v-49l-119 -48l103 -86
q13 -9 17 -19.5t4 -24.5q0 -20 -6 -31q-46 -8 -128 -8z" />
    <glyph glyph-name="uniFEDA" unicode="&#x643;" horiz-adv-x="805" arabic-form="final" 
d="M830 46q0 -46 -26 -46q-71 0 -114.5 19t-63.5 63q-50 -47 -131 -70.5t-164 -23.5q-149 0 -221.5 43.5t-72.5 147.5q0 60 25 126h76q-16 -51 -16 -98t21 -74t69.5 -39t131.5 -12q72 0 142.5 18t122.5 56q-1 9 -1 28v540l83 9v-540q0 -46 10.5 -67.5t33 -28t69.5 -6.5
q26 0 26 -45zM334 304q-46 0 -63 2v44h147l-124 100v48l169 72v-49l-119 -48l103 -86q13 -9 17 -19.5t4 -24.5q0 -20 -6 -31q-46 -8 -128 -8z" />
    <glyph glyph-name="uniFEDB" unicode="&#x643;" horiz-adv-x="399" arabic-form="initial" 
d="M-19 11q-6 11 -6 35t6 34.5t19 10.5q118 0 179 3t106 12q-7 161 -198 308l-51 26v59l314 242l7 -97l-211 -160q107 -86 160 -181.5t53 -190.5q0 -42 -12 -68q-45 -44 -347 -44q-13 0 -19 11z" />
    <glyph glyph-name="uniFEDC" unicode="&#x643;" horiz-adv-x="440" arabic-form="medial" 
d="M-19 11q-6 11 -6 35t6 34.5t19 10.5q87 0 138 9.5t106 36.5l-203 294v65l335 245l7 -95l-263 -186l220 -317q21 -31 41 -41.5t58 -10.5q13 0 19.5 -11t6.5 -34q0 -24 -6 -35t-20 -11q-54 0 -86 16t-70 62q-102 -78 -283 -78q-13 0 -19 11z" />
    <glyph glyph-name="uniFEDD" unicode="&#x644;" horiz-adv-x="647" arabic-form="isolated" 
d="M466 724l87 9v-686q0 -106 -17 -143q-36 -39 -102 -60t-144 -21q-119 0 -186 57.5t-67 170.5q0 81 31 159h73q-20 -73 -20 -126q0 -86 45 -125.5t138 -39.5q47 0 89 9t72 26q1 12 1 29.5v25.5v715z" />
    <glyph glyph-name="uniFEDE" unicode="&#x644;" horiz-adv-x="671" arabic-form="final" 
d="M696 46q0 -46 -25 -46q-75 0 -118 43q0 -102 -17 -139q-36 -39 -102 -60t-144 -21q-119 0 -186 57.5t-67 170.5q0 81 31 159h73q-20 -73 -20 -126q0 -86 45 -125.5t138 -39.5q47 0 89 9t72 26q1 12 1 29.5v25.5v715l87 9v-539q6 -59 32 -81t86 -22q25 0 25 -45z" />
    <glyph glyph-name="uniFEDF" unicode="&#x644;" horiz-adv-x="292" arabic-form="initial" 
d="M-19 11q-6 11 -6 35t6 34.5t19 10.5q64 0 109 5v628l86 9v-584q0 -39 -5.5 -74.5t-12.5 -55.5q-50 -19 -177 -19q-13 0 -19 11z" />
    <glyph glyph-name="uniFEE0" unicode="&#x644;" horiz-adv-x="309" arabic-form="medial" 
d="M334 46q0 -46 -25 -46q-114 0 -162 62q-21 -30 -58.5 -46t-88.5 -16q-13 0 -19 11t-6 35t6 34.5t19 10.5q35 0 64.5 9t45.5 26q3 14 3 66v532l83 9v-532q0 -45 11.5 -69t35.5 -32.5t66 -8.5q25 0 25 -45z" />
    <glyph glyph-name="uniFEE1" unicode="&#x645;" horiz-adv-x="479" arabic-form="isolated" 
d="M357 311.5q41 -31.5 64 -84.5t23 -116q0 -74 -29 -103q-43 -11 -154 -11q-67 0 -130 -3v-266l-86 -10v226q0 39 5 74.5t12 54.5q23 5 46 8q-7 46 -7 70q0 56 20.5 100t57.5 68t84 24q53 0 94 -31.5zM370 100q0 36 -14 70.5t-41 57t-65 22.5q-36 0 -59 -23.5t-23 -63.5
q0 -35 11 -77q29 1 93 1q92 0 97 2q1 3 1 11z" />
    <glyph glyph-name="uniFEE2" unicode="&#x645;" horiz-adv-x="529" arabic-form="final" 
d="M554 46q-1 -24 -7 -35t-19 -11q-44 0 -69 12t-45 43q-16 -29 -38 -41q-30 -15 -112 -15q-76 0 -133 -4v-267l-86 -10v226q0 39 5 74.5t12 54.5q21 6 50 9q-9 50 -9 77q0 54 20.5 96t57.5 65.5t84 23.5q68 0 108.5 -43t74.5 -125q16 -37 25 -53.5t21.5 -24t33.5 -7.5
q26 0 26 -45zM338.5 93q24.5 4 47.5 16q-2 4 -4.5 9.5t-5.5 12.5q-28 64 -53.5 93t-69.5 29q-36 0 -58.5 -21.5t-22.5 -60.5q0 -43 11 -83q29 1 93 1q38 0 62.5 4z" />
    <glyph glyph-name="uniFEE3" unicode="&#x645;" horiz-adv-x="491" arabic-form="initial" 
d="M370.5 324.5q43.5 -32.5 67.5 -87t24 -117.5q0 -40 -10.5 -69t-27.5 -46q-26 -15 -79 -15q-56 0 -109 17t-124 58q-24 -40 -48.5 -52.5t-63.5 -12.5q-13 0 -19 11t-6 35t6 34.5t19 10.5q21 0 32 4t23 15q8 10 17.5 33.5t11.5 29.5q30 69 51.5 105.5t54 57.5t82.5 21
q55 0 98.5 -32.5zM381 113q0 39 -16.5 74.5t-44.5 57t-62 21.5q-25 0 -42.5 -11.5t-32 -36.5t-34.5 -73q63 -34 107.5 -47.5t88.5 -13.5q23 0 31 5q5 10 5 24z" />
    <glyph glyph-name="uniFEE4" unicode="&#x645;" horiz-adv-x="529" arabic-form="medial" 
d="M547.5 80q6.5 -11 6.5 -34q0 -24 -6 -35t-20 -11q-44 0 -69 12t-44 43q-18 -35 -37 -47q-18 -10 -38 -14t-47 -4q-47 0 -91.5 16.5t-96.5 53.5q-19 -33 -43 -46.5t-62 -13.5q-13 0 -19 11t-6 35t6 34.5t19 10.5q26 0 41 7q8 9 17.5 29.5t22.5 50.5q39 93 78 134.5
t102 41.5q51 0 84.5 -22t54.5 -57.5t49 -98.5q17 -39 25.5 -54.5t20.5 -23t33 -7.5q13 0 19.5 -11zM391 100l-14 31q-21 48 -36.5 74t-37 41t-52.5 15q-28 0 -46.5 -14.5t-31.5 -38.5t-32 -70q56 -30 95.5 -43t78.5 -13q47 0 76 18z" />
    <glyph glyph-name="uniFEE5" unicode="&#x646;" horiz-adv-x="614" arabic-form="isolated" 
d="M337 324l-72 -3q-9 43 -8 81q21 4 54 4q19 0 28 -1zM557 262q9 -133 9 -215q0 -106 -17 -143q-37 -39 -107 -60t-152 -21q-119 0 -186 57.5t-67 170.5q0 81 31 159h73q-20 -73 -20 -126q0 -86 45 -125.5t139 -39.5q52 0 98 9.5t80 28.5v36q0 53 -13 259z" />
    <glyph glyph-name="uniFEE6" unicode="&#x646;" horiz-adv-x="692" arabic-form="final" 
d="M717 46q0 -46 -26 -46q-79 0 -125 41q0 -101 -17 -137q-37 -39 -107 -60t-152 -21q-119 0 -186 57.5t-67 170.5q0 81 31 159h73q-20 -73 -20 -126q0 -86 45 -125.5t139 -39.5q52 0 98 9.5t80 28.5v36q0 53 -13 259l87 10l3 -46v0q4 -51 16.5 -77.5t39 -37t75.5 -10.5
q26 0 26 -45zM265 320q-9 42 -8 80q21 4 54 4q18 0 27 -1l-2 -80z" />
    <glyph glyph-name="uniFEE7" unicode="&#x646;" horiz-adv-x="298" arabic-form="initial" 
d="M204 367l2 -34q8 -132 8 -178q0 -70 -12 -98q-26 -26 -83 -41.5t-119 -15.5q-13 0 -19 11t-6 35t6 34.5t19 10.5q84 0 138 20q-3 58 -16 223l-2 23zM129 443q-9 42 -8 80q21 4 54 4q18 0 27 -1l-2 -80z" />
    <glyph glyph-name="uniFEE8" unicode="&#x646;" horiz-adv-x="353" arabic-form="medial" 
d="M378 46q0 -46 -25 -46q-129 0 -179 72q-25 -33 -70 -52.5t-104 -19.5q-13 0 -19 11t-6 35t6 34.5t19 10.5q46 0 82.5 11.5t55.5 34.5q3 14 3 63v115l81 8v-115q0 -67 29 -92t102 -25q25 0 25 -45zM145 421q-9 42 -8 80q21 4 54 4q18 0 27 -1l-2 -80z" />
    <glyph glyph-name="uniFEE9" unicode="&#x647;" horiz-adv-x="404" arabic-form="isolated" 
d="M72 31.5q-48 41.5 -48 114.5q0 62 29.5 122.5t91.5 122.5l81 9q76 -45 114 -104t38 -124q0 -34 -7.5 -66.5t-22.5 -56.5q-23 -28 -61.5 -43.5t-90.5 -15.5q-76 0 -124 41.5zM297 105q10 19 10 52q0 45 -28 84.5t-93 76.5q-94 -70 -94 -155q0 -41 31 -63.5t81 -22.5
q65 0 93 28z" />
    <glyph glyph-name="uniFEEA" unicode="&#x647;" horiz-adv-x="483" arabic-form="final" 
d="M349.5 28.5q-43.5 28.5 -56.5 100.5q-48 -10 -92 -10q-84 0 -122 35t-38 91q0 61 57 123t192 106l1 50l83 9v-343q0 -42 10 -63t32.5 -28.5t66.5 -7.5q25 0 25 -45q0 -46 -25 -46q-90 0 -133.5 28.5zM290 214v177q-88 -24 -135 -58.5t-47 -67.5q0 -59 101 -59q48 0 81 8z
" />
    <glyph glyph-name="uniFEEB" unicode="&#x647;" horiz-adv-x="589" arabic-form="initial" 
d="M333 9q-56 15 -117 45q-59 -27 -111.5 -39.5t-104.5 -14.5q-13 0 -19 11t-6 35t6 34.5t19 10.5q76 2 138 20q-38 28 -57 60t-19 72q0 39 17 75t50 65l-48 22l37 74q88 -30 170 -66.5t142 -73.5q67 -44 96 -99.5t29 -122.5q0 -38 -10 -67t-25 -43q-20 -13 -70 -13
q-61 0 -117 15zM288.5 185.5q24.5 26.5 24.5 58.5q0 48 -30.5 75.5t-71.5 27.5q-38 0 -61 -26t-23 -63q0 -65 99 -112q38 13 62.5 39.5zM477 83q5 8 5 25q0 52 -24.5 92.5t-81.5 71.5q3 -13 3 -26q-2 -42 -19 -75t-57 -61q77 -30 150 -30q15 0 24 3z" />
    <glyph glyph-name="uniFEEC" unicode="&#x647;" horiz-adv-x="467" arabic-form="medial" 
d="M467 91q13 0 19 -10.5t6 -34.5q0 -46 -25 -46h-28t-39 2q25 -13 39.5 -33.5t14.5 -40.5q0 -26 -3 -46t-12 -38q-19 -35 -59 -56t-101 -21q-88 0 -149.5 59t-75.5 174h-54q-13 0 -19 11t-6 35t6 34.5t19 10.5h52q6 70 33 134t71.5 103.5t98.5 39.5q44 0 77.5 -19.5
t51.5 -52.5t18 -71q0 -48 -21 -81t-61 -59l84 6h63zM186.5 250q-26.5 -25 -44 -67t-21.5 -93q92 5 148.5 33.5t56.5 80.5q0 34 -23.5 52.5t-59.5 18.5q-30 0 -56.5 -25zM357 -128q26 13 32 36q0 22 -25.5 47.5t-65.5 43t-83 19.5q-59 -10 -90 -12q12 -69 54 -108t109 -39
q43 0 69 13z" />
    <glyph glyph-name="uniFEED" unicode="&#x648;" horiz-adv-x="428" arabic-form="isolated" 
d="M307 312q40 -31 65 -90t25 -140q0 -152 -90 -231.5t-253 -79.5l-10 82q124 8 189 42.5t83 105.5q-92 1 -147.5 13t-84 43t-28.5 88q0 49 20 94.5t57.5 74.5t87.5 29q46 0 86 -31zM168.5 105q46.5 -17 155.5 -18q-4 80 -38 122.5t-80 42.5q-42 0 -63 -27t-21 -61
q0 -42 46.5 -59z" />
    <glyph glyph-name="uniFEEE" unicode="&#x648;" horiz-adv-x="460" arabic-form="final" 
d="M459 91q13 0 19.5 -11t6.5 -34q0 -24 -6 -35t-20 -11h-70q-22 -112 -109 -170.5t-226 -58.5l-10 82q124 8 189 42.5t83 105.5q-92 1 -147.5 13t-84 43t-28.5 88q0 49 20 94.5t57.5 74.5t87.5 29q45 0 84.5 -29.5t65 -87t26.5 -135.5h62zM168.5 105q46.5 -17 155.5 -18
q-4 80 -38 122.5t-80 42.5q-42 0 -63 -27t-21 -61q0 -42 46.5 -59z" />
    <glyph glyph-name="uniFEEF" unicode="&#x649;" horiz-adv-x="694" arabic-form="isolated" 
d="M597 113q32 -19 44.5 -47t12.5 -74q0 -59 -21 -99q-45 -57 -124 -87.5t-180 -30.5q-292 0 -292 262q0 46 8 94.5t24 92.5h74q-22 -86 -22 -159q0 -98 55.5 -145.5t170.5 -47.5q78 0 136 19.5t88 53.5q6 15 6 26q0 24 -7.5 39.5t-32 28t-73.5 23.5q-63 16 -98 33.5
t-51.5 46t-16.5 74.5q0 54 29.5 99t81.5 71t116 26q58 0 115 -24l-11 -84q-26 8 -58 12t-54 4q-40 0 -73.5 -12.5t-54 -33t-22.5 -43.5q3 -22 16 -35t39.5 -23t81.5 -25q61 -16 93 -35z" />
    <glyph glyph-name="uniFEF0" unicode="&#x649;" horiz-adv-x="640" arabic-form="final" 
d="M648 1v-9q0 -61 -23 -101q-44 -55 -123.5 -85.5t-175.5 -30.5q-289 0 -289 262q0 46 8 94.5t24 92.5h74q-22 -86 -22 -159q0 -98 55.5 -145.5t166.5 -47.5q75 0 133 18.5t88 54.5q6 13 6 26q0 21 -4 34q-83 2 -164 8l14 83q106 -5 224 -5q13 0 19 -10.5t6 -34.5
q0 -39 -17 -45z" />
    <glyph glyph-name="uniFEF1" unicode="&#x64a;" horiz-adv-x="694" arabic-form="isolated" 
d="M597 113q32 -19 44.5 -47t12.5 -74q0 -59 -21 -99q-45 -57 -124 -87.5t-180 -30.5q-292 0 -292 262q0 46 8 94.5t24 92.5h74q-22 -86 -22 -159q0 -98 55.5 -145.5t170.5 -47.5q78 0 136 19.5t88 53.5q6 15 6 26q0 24 -7.5 39.5t-32 28t-73.5 23.5q-63 16 -98 33.5
t-51.5 46t-16.5 74.5q0 54 29.5 99t81.5 71t116 26q58 0 115 -24l-11 -84q-26 8 -58 12t-54 4q-40 0 -73.5 -12.5t-54 -33t-22.5 -43.5q3 -22 16 -35t39.5 -23t81.5 -25q61 -16 93 -35zM223 -397q-9 42 -8 80q21 4 54 4q18 0 27 -1l-2 -80zM356 -397q-9 42 -8 80q21 4 54 4
q18 0 27 -1l-2 -80z" />
    <glyph glyph-name="uniFEF2" unicode="&#x64a;" horiz-adv-x="640" arabic-form="final" 
d="M648 1v-9q0 -61 -23 -101q-44 -55 -123.5 -85.5t-175.5 -30.5q-289 0 -289 262q0 46 8 94.5t24 92.5h74q-22 -86 -22 -159q0 -98 55.5 -145.5t166.5 -47.5q75 0 133 18.5t88 54.5q6 13 6 26q0 21 -4 34q-83 2 -164 8l14 83q106 -5 224 -5q13 0 19 -10.5t6 -34.5
q0 -39 -17 -45zM221 -397q-9 42 -8 80q21 4 54 4q18 0 27 -1l-2 -80zM354 -397q-9 42 -8 80q21 4 54 4q18 0 27 -1l-2 -80z" />
    <glyph glyph-name="uniFEF3" unicode="&#x64a;" horiz-adv-x="298" arabic-form="initial" 
d="M204 367l2 -34q8 -132 8 -178q0 -70 -12 -98q-26 -26 -83 -41.5t-119 -15.5q-13 0 -19 11t-6 35t6 34.5t19 10.5q84 0 138 20q-3 58 -16 223l-2 23zM-6 -172q-9 42 -8 80q21 4 54 4q18 0 27 -1l-2 -80zM127 -172q-9 42 -8 80q21 4 54 4q18 0 27 -1l-2 -80z" />
    <glyph glyph-name="uniFEF4" unicode="&#x64a;" horiz-adv-x="353" arabic-form="medial" 
d="M378 46q0 -46 -25 -46q-129 0 -179 72q-25 -33 -70 -52.5t-104 -19.5q-13 0 -19 11t-6 35t6 34.5t19 10.5q46 0 82.5 11.5t55.5 34.5q3 14 3 63v115l81 8v-115q0 -67 29 -92t102 -25q25 0 25 -45zM62 -172q-9 42 -8 80q21 4 54 4q18 0 27 -1l-2 -80zM195 -172
q-9 42 -8 80q21 4 54 4q18 0 27 -1l-2 -80z" />
    <glyph glyph-name=".notdef" horiz-adv-x="788" 
d="M700 0h-611v777h611v-777zM124 742v-707h541v707h-541zM368 295q-5 23 -5 40q0 21 9.5 40.5t25.5 41.5q15 20 20.5 29.5t6.5 19.5q0 33 -88 46l16 36q53 -3 85 -23.5t32 -52.5q0 -17 -8.5 -32.5t-25.5 -38.5q-19 -26 -27 -40t-8 -30l2 -36h-35zM367 198q-4 34 -4 46
q17 4 48 2q0 -24 -3 -48h-41z" />
    <glyph glyph-name=".null" horiz-adv-x="600" 
 />
    <glyph glyph-name="nonmarkingreturn" unicode="&#xd;" horiz-adv-x="600" 
 />
    <glyph glyph-name="space" unicode=" " horiz-adv-x="203" 
 />
    <glyph glyph-name="exclam" unicode="!" horiz-adv-x="304" 
d="M186 161h-63l-24 446l109 15zM116 0q-8 51 -9 92q30 5 64 5q22 0 33 -1q-2 -50 -6 -96h-82z" />
    <glyph glyph-name="quotedbl" unicode="&#x22;" horiz-adv-x="374" 
d="M133 370h-62l-15 287h93zM304 370h-62l-15 287h93z" />
    <glyph glyph-name="numbersign" unicode="#" horiz-adv-x="617" 
d="M597 452l-13 -60h-101l-33 -166h101l-12 -60h-101l-33 -166h-76l33 166h-150l-33 -166h-76l33 166h-116l13 60h115l33 166h-115l13 60h114l31 158l78 7l-33 -165h150l31 158l77 7l-33 -165h103zM224 226h150l33 166h-150z" />
    <glyph glyph-name="dollar" unicode="$" horiz-adv-x="458" 
d="M373 51q-34 -40 -100 -53l-3 -98h-80l-2 92q-72 4 -128 20l7 78q78 -22 155 -22q54 0 80 20q17 17 17 42q0 30 -27 51t-84 51q-48 24 -78.5 44t-52.5 49.5t-22 69.5q-1 52 34.5 86.5t98.5 47.5l2 96h80l2 -89q58 -1 120 -15l-7 -79q-69 20 -135 20q-71 0 -96 -20
q-13 -16 -13 -33q0 -28 26 -48t82 -47q50 -24 81.5 -44t54 -50.5t22.5 -71.5q0 -57 -34 -97z" />
    <glyph glyph-name="percent" unicode="%" horiz-adv-x="640" 
d="M61 375.5q-38 38.5 -38 100.5q0 65 40 104t105 39q62 0 98 -37.5t36 -100.5q0 -64 -39.5 -104t-102.5 -40q-61 0 -99 38.5zM605 601l-494 -609l-81 13l494 609zM213 416q14 22 14 58q0 82 -68 82q-25 0 -43 -13q-18 -25 -18 -61q0 -40 18.5 -61.5t52.5 -21.5q27 0 44 17z
M375.5 27q-37.5 38 -37.5 100q0 65 40 104.5t104 39.5q62 0 98.5 -38t36.5 -100q0 -65 -39.5 -104.5t-102.5 -39.5q-62 0 -99.5 38zM527 67q15 24 15 58q0 83 -70 83q-24 0 -42 -14q-17 -21 -17 -60q0 -40 18.5 -61.5t51.5 -21.5q28 0 44 16z" />
    <glyph glyph-name="ampersand" unicode="&#x26;" horiz-adv-x="670" 
d="M650 80l-5 -86q-9 -3 -32 -3q-97 0 -211 87q-101 -88 -203 -88q-71 0 -115.5 39.5t-44.5 101.5q0 60 41 116t104 100q-35 73 -35 124q0 49 31.5 85.5t82 55.5t105.5 19q65 0 122 -28l-7 -78q-53 22 -117 22q-52 0 -91 -14.5t-50 -43.5q0 -59 53.5 -147.5t131.5 -158.5
q62 71 114 175l65 -11q-54 -121 -127 -207q87 -61 160 -61q19 0 28 1zM349 124q-79 75 -132 163q-96 -70 -96 -137q0 -38 26.5 -59.5t68.5 -21.5q65 0 133 55z" />
    <glyph glyph-name="quotesingle" unicode="'" horiz-adv-x="203" 
d="M133 370h-62l-15 287h93z" />
    <glyph glyph-name="parenleft" unicode="(" horiz-adv-x="264" 
d="M165 -163q-133 214 -133 436q0 225 138 450l69 -24q-119 -208 -119 -423q0 -106 30 -210.5t89 -201.5z" />
    <glyph glyph-name="parenright" unicode=")" horiz-adv-x="265" 
d="M25 -139q120 212 120 423q0 105 -30.5 210t-89.5 203l74 26q134 -218 134 -437q0 -220 -139 -449z" />
    <glyph glyph-name="asterisk" unicode="*" horiz-adv-x="412" 
d="M201 379l-78 -109l-56 43l77 109v8l-126 36l20 64l127 -35l5 4v131h72l2 -131l4 -4l127 36l19 -64l-126 -37l-1 -8l79 -108l-56 -44l-79 109h-10z" />
    <glyph glyph-name="plus" unicode="+" horiz-adv-x="471" 
d="M277 315h156l-3 -70h-153v-158h-85v158h-154l3 70h151v153l85 8v-161z" />
    <glyph glyph-name="comma" unicode="," horiz-adv-x="204" 
d="M37 -113q16 52 23.5 97.5t7.5 97.5q0 24 -4 60h89q5 -18 5 -44q0 -60 -12.5 -109t-41.5 -102h-67z" />
    <glyph glyph-name="hyphen" unicode="-" horiz-adv-x="385" 
d="M326 277h-274l6 70h275z" />
    <glyph glyph-name="period" unicode="." horiz-adv-x="186" 
d="M53 0q-8 51 -9 92q30 5 64 5q22 0 33 -1q-2 -50 -6 -96h-82z" />
    <glyph glyph-name="slash" unicode="/" horiz-adv-x="309" 
d="M106 -77h-76l173 819h76z" />
    <glyph glyph-name="zero" unicode="0" horiz-adv-x="539" 
d="M100 56.5q-56 67.5 -56 203.5q0 131 60 203.5t172 72.5q108 0 163.5 -67t55.5 -193q0 -141 -59 -214t-172 -73q-108 0 -164 67.5zM372 100q28 40 28 159q0 199 -140 199q-58 0 -89 -31q-16 -21 -24 -65.5t-8 -90.5q0 -104 33.5 -153.5t105.5 -49.5q65 0 94 32z" />
    <glyph glyph-name="one" unicode="1" horiz-adv-x="311" 
d="M227 0h-93v428l-109 -8l1 62l111 22l48 23h42v-527z" />
    <glyph glyph-name="two" unicode="2" horiz-adv-x="475" 
d="M39 65q108 70 194 159.5t86 150.5q0 40 -27 61t-82 21q-59 0 -146 -31l7 72q84 38 158 38q93 0 141.5 -40t48.5 -104q0 -77 -74 -158.5t-181 -149.5v-8h274l-4 -76h-392z" />
    <glyph glyph-name="three" unicode="3" horiz-adv-x="452" 
d="M40 -81l15 72q64 -19 129 -19q38 0 63.5 6t41.5 22q20 18 28 40.5t8 42.5q0 54 -53 82t-166 28l5 67q193 1 193 108q0 47 -29.5 68.5t-87.5 21.5q-67 0 -133 -24l5 69q73 34 147 34q95 0 144.5 -42.5t49.5 -108.5q0 -47 -30.5 -88t-78.5 -58v-6q62 -11 96.5 -48.5
t34.5 -96.5q0 -56 -30 -101t-86 -70.5t-130 -25.5q-76 0 -136 27z" />
    <glyph glyph-name="four" unicode="4" horiz-adv-x="498" 
d="M476 105v-72h-77v-130l-87 -2v132h-273l-12 75q132 193 248 419h103q-117 -212 -262 -414l2 -7l194 -1v146l87 14v-160h77z" />
    <glyph glyph-name="five" unicode="5" horiz-adv-x="449" 
d="M364 230q51 -47 51 -130q0 -96 -63.5 -152t-175.5 -56q-77 0 -136 27l14 72q64 -19 130 -19q40 0 65 5.5t44 21.5q28 37 28 89q0 55 -33.5 84.5t-113.5 29.5q-45 0 -111 -9l16 334h308l-6 -76h-226l-14 -179q42 5 70 5q102 0 153 -47z" />
    <glyph glyph-name="six" unicode="6" horiz-adv-x="491" 
d="M98 60q-54 67 -54 218q0 174 71 261t199 87q62 0 111 -21l-9 -68q-45 16 -106 16q-86 0 -129 -51.5t-51 -140.5q74 31 145 31q83 0 131 -47.5t48 -138.5q0 -65 -27.5 -113.5t-75 -74t-106.5 -25.5q-93 0 -147 67zM321 84q23 16 35 47t12 64q0 63 -31 96t-91 33
q-61 0 -114 -25q-3 -21 -3 -27q0 -105 32.5 -154.5t97.5 -49.5q36 0 62 16z" />
    <glyph glyph-name="seven" unicode="7" horiz-adv-x="475" 
d="M80 -96q105 294 266 539v8h-305l6 76h383l9 -63q-150 -244 -254 -560h-105z" />
    <glyph glyph-name="eight" unicode="8" horiz-adv-x="501" 
d="M341 320q57 -36 88 -73t31 -87q0 -45 -25.5 -84t-73 -62.5t-111.5 -23.5q-57 0 -104.5 19t-75.5 54.5t-28 83.5q0 50 30 99.5t79 85.5v2q-41 30 -63.5 64t-22.5 76q0 41 23 75.5t68 55t108 20.5q86 0 131.5 -38t45.5 -94q0 -43 -22 -87.5t-78 -83.5v-2zM152 488
q0 -40 30.5 -69t91.5 -64l7 -3q35 30 54 62.5t19 65.5q0 37 -28.5 58.5t-78.5 21.5q-40 0 -68 -16q-27 -23 -27 -56zM371 141q0 31 -21.5 57t-49 44t-87.5 53l-6 1q-76 -69 -76 -138q0 -45 35.5 -71.5t94.5 -26.5q56 0 90 24q20 26 20 57z" />
    <glyph glyph-name="nine" unicode="9" horiz-adv-x="491" 
d="M66 -80l10 69q40 -16 105 -16q87 0 130 51.5t50 140.5q-71 -31 -145 -31q-83 0 -131 47t-48 138q0 65 27.5 113.5t75.5 74.5t107 26q92 0 146 -67t54 -219q0 -174 -71 -261.5t-199 -87.5q-66 0 -111 22zM360 227q2 12 2 27q0 104 -32.5 154t-97.5 50q-35 0 -62 -16
q-23 -16 -34.5 -47t-11.5 -65q0 -128 121 -128q65 0 115 25z" />
    <glyph glyph-name="colon" unicode=":" horiz-adv-x="186" 
d="M53 70q-8 51 -9 92q30 5 64 5q22 0 33 -1q-2 -50 -6 -96h-82zM53 340q-8 51 -9 92q30 5 64 5q22 0 33 -1q-2 -50 -6 -96h-82z" />
    <glyph glyph-name="semicolon" unicode=";" horiz-adv-x="212" 
d="M78 303q-8 51 -9 92q30 5 64 5q22 0 33 -1q-2 -50 -6 -96h-82zM37 -113q16 52 23.5 97.5t7.5 97.5q0 24 -4 60h89q5 -18 5 -44q0 -60 -12.5 -109t-41.5 -102h-67z" />
    <glyph glyph-name="less" unicode="&#x3c;" horiz-adv-x="457" 
d="M404 486v-84l-246 -106v-8l246 -106v-83l-365 160v67z" />
    <glyph glyph-name="equal" unicode="=" horiz-adv-x="453" 
d="M418 316h-383l5 72h383zM413 157h-383l5 72h383z" />
    <glyph glyph-name="greater" unicode="&#x3e;" horiz-adv-x="457" 
d="M299 296l-246 106v84l365 -160v-67l-365 -160v83l246 106v8z" />
    <glyph glyph-name="question" unicode="?" horiz-adv-x="404" 
d="M131 161q-13 32 -13 66q0 23 15.5 47t47.5 61q36 42 54 70.5t18 57.5q0 36 -23 55t-67 19q-30 0 -67 -13.5t-64 -33.5l8 89q26 18 63 29t76 11q72 0 119.5 -36t47.5 -105q0 -47 -24 -86.5t-68 -91.5q-44 -49 -55 -75l1 -64h-69zM124 0q-8 51 -9 92q30 5 64 5q22 0 33 -1
q-2 -50 -6 -96h-82z" />
    <glyph glyph-name="at" unicode="@" horiz-adv-x="789" 
d="M199 -46q-76 41 -117.5 120.5t-41.5 193.5q0 120 50 213.5t140.5 146t208.5 52.5q102 0 171.5 -39t104 -108t34.5 -160q0 -98 -28.5 -162.5t-72.5 -94.5t-90 -30q-25 0 -46 17.5t-32.5 49.5t-8.5 72l-7 3q-49 -133 -134 -133q-42 0 -70 40t-28 116q0 78 25.5 135
t68.5 86.5t94 29.5q44 0 74 -8t62 -31l-19 -138q-7 -40 -7 -76q0 -69 24 -97l7 -2q52 3 83.5 58t31.5 157q0 116 -62.5 182.5t-186.5 66.5q-95 0 -166 -44t-109 -120.5t-38 -172.5q0 -150 72 -224t204 -74q98 0 177 21l1 -56q-84 -31 -189 -31q-104 0 -180 41zM419 236.5
q32 63.5 55 173.5l-2 6q-23 16 -65 16q-27 0 -50 -12q-21 -20 -33.5 -61t-12.5 -95q0 -50 9 -70.5t32 -20.5q35 0 67 63.5z" />
    <glyph glyph-name="A" unicode="A" horiz-adv-x="548" 
d="M538 0h-104l-41 136h-243l-43 -136h-98l212 610l112 3zM272 527l-100 -320h199l-97 320h-2z" />
    <glyph glyph-name="B" unicode="B" horiz-adv-x="544" 
d="M388 326q55 -16 85 -54.5t30 -96.5q0 -88 -60.5 -136t-185.5 -48q-77 0 -173 11v608q90 8 181 8q109 0 163.5 -39t54.5 -105q0 -46 -23.5 -85t-71.5 -61v-2zM179 544v-192h56q67 0 91 4q30 17 44.5 44.5t14.5 59.5q0 44 -33 65.5t-92 21.5q-51 0 -81 -3zM391.5 115
q11.5 23 11.5 56q0 112 -120 112h-104v-211q53 -6 87 -6q53 0 84 11q30 15 41.5 38z" />
    <glyph glyph-name="C" unicode="C" horiz-adv-x="505" 
d="M114 75q-74 84 -74 226q0 96 34.5 168t102.5 112t165 40q68 0 133 -20l-9 -79q-61 17 -126 17q-43 0 -74.5 -9t-61.5 -30q-29 -34 -45.5 -77.5t-16.5 -108.5q0 -112 53 -175.5t160 -63.5q58 0 118 16l-4 -80q-80 -20 -144 -20q-137 0 -211 84z" />
    <glyph glyph-name="D" unicode="D" horiz-adv-x="613" 
d="M84 1v609q92 9 194 9q124 0 209.5 -64.5t85.5 -225.5q0 -165 -81 -250t-231 -85q-69 0 -177 7zM362 87q56 33 82.5 88.5t26.5 143.5q0 119 -52 170t-152 51q-27 0 -87 -2v-459q48 -3 91 -3q54 0 91 11z" />
    <glyph glyph-name="E" unicode="E" horiz-adv-x="498" 
d="M180 278v-202h265l-6 -76h-355v610h355l5 -72h-264v-187h232l-5 -73h-227z" />
    <glyph glyph-name="F" unicode="F" horiz-adv-x="476" 
d="M439 534h-259v-197h231l-5 -74h-226v-263h-96v610h350z" />
    <glyph glyph-name="G" unicode="G" horiz-adv-x="591" 
d="M114.5 73.5q-74.5 82.5 -74.5 225.5q0 102 39 174.5t111 110t168 37.5q76 0 161 -25l-8 -77q-78 22 -163 22q-78 0 -132 -27q-34 -34 -54 -82.5t-20 -122.5q0 -113 49 -175.5t144 -62.5q58 0 115 15v161h-131l2 72h219v-191q0 -48 -5 -82q-84 -55 -213 -55
q-133 0 -207.5 82.5z" />
    <glyph glyph-name="H" unicode="H" horiz-adv-x="656" 
d="M476 352v258h96v-610h-96v273h-296v-273h-96v610h96v-258h296z" />
    <glyph glyph-name="I" unicode="I" horiz-adv-x="325" 
d="M294 542l-83 -3h-1v-467h1l83 -4v-68h-263v68l83 4v467l-83 3v68h263v-68z" />
    <glyph glyph-name="J" unicode="J" horiz-adv-x="380" 
d="M214 610h97v-384q0 -145 -49 -195q-38 -41 -130 -41q-61 0 -111 25l6 73q62 -16 112 -16q40 0 66 11q9 44 9 119v408z" />
    <glyph glyph-name="K" unicode="K" horiz-adv-x="572" 
d="M512 79l53 -11l-6 -69q-21 -5 -56 -5q-27 0 -46 7t-30 25l-157 248h-2l-88 -93v-181h-96v610h96v-329h2l258 329h109l-218 -276v-2z" />
    <glyph glyph-name="L" unicode="L" horiz-adv-x="459" 
d="M180 610v-532h256l-7 -78h-345v610h96z" />
    <glyph glyph-name="M" unicode="M" horiz-adv-x="750" 
d="M174 0h-90v610h122l171 -310h2l172 310h115v-610h-92v485h-2l-164 -292h-69l-163 292h-2v-485z" />
    <glyph glyph-name="N" unicode="N" horiz-adv-x="668" 
d="M168 0h-84v610h98l319 -472h2l-4 472h85v-610h-91l-325 479h-2z" />
    <glyph glyph-name="O" unicode="O" horiz-adv-x="630" 
d="M167.5 27.5q-61.5 39.5 -94.5 110.5t-33 162q0 97 35.5 169.5t100 111.5t149.5 39q79 0 139.5 -38.5t93 -109t32.5 -161.5q0 -96 -35 -169.5t-98 -113.5t-146 -40q-82 0 -143.5 39.5zM384 77q28 9 52 31q27 37 39.5 82.5t12.5 106.5q0 116 -47 179t-125 63
q-37 0 -62.5 -7t-52.5 -26q-59 -75 -59 -195q0 -114 48.5 -178.5t129.5 -64.5q36 0 64 9z" />
    <glyph glyph-name="P" unicode="P" horiz-adv-x="519" 
d="M180 193v-193h-96v610q79 4 166 4q117 0 177 -46.5t60 -157.5q0 -110 -68 -163.5t-211 -53.5h-28zM217 269q31 0 57.5 1t48.5 5q29 15 46 47t17 80q0 70 -33 103.5t-101 33.5q-40 0 -72 -2v-268h37z" />
    <glyph glyph-name="Q" unicode="Q" horiz-adv-x="630" 
d="M549 -159q-183 37 -253 149q-78 3 -136 43t-89 109t-31 158q0 97 35.5 169.5t100 111.5t149.5 39q79 0 139.5 -38.5t93 -109t32.5 -161.5q0 -122 -56 -205.5t-152 -106.5v-7q34 -23 79 -39.5t107 -31.5zM384 77q28 9 52 31q27 37 39.5 82.5t12.5 106.5q0 116 -47 179
t-125 63q-37 0 -62.5 -7t-52.5 -26q-59 -75 -59 -195q0 -114 48.5 -178.5t129.5 -64.5q36 0 64 9z" />
    <glyph glyph-name="R" unicode="R" horiz-adv-x="554" 
d="M446.5 3.5q-17.5 8.5 -30.5 29.5l-118 198l-118 -2v-229h-96v610q76 5 184 5q104 0 158.5 -36.5t54.5 -126.5q0 -123 -103 -193v-2l126 -178l56 -11l-6 -68q-26 -5 -61 -5q-29 0 -46.5 8.5zM232 300q55 0 91 5q27 22 42.5 56.5t15.5 74.5q0 54 -28.5 79t-92.5 25
q-43 0 -80 -2v-238h52z" />
    <glyph glyph-name="S" unicode="S" horiz-adv-x="489" 
d="M55 23l10 82q48 -19 93.5 -27.5t78.5 -8.5q60 0 92 27q21 23 21 53q0 26 -17 47t-41.5 37t-69.5 40q-55 29 -88.5 51.5t-57.5 56.5t-24 79q0 75 63.5 118.5t166.5 43.5q58 0 140 -21l-14 -83q-74 26 -138 26q-39 0 -70.5 -8t-46.5 -21q-12 -18 -12 -39q0 -35 30.5 -59.5
t94.5 -57.5q55 -29 89.5 -51.5t59 -57.5t24.5 -81t-24 -87t-74 -67t-123 -26q-79 0 -163 34z" />
    <glyph glyph-name="T" unicode="T" horiz-adv-x="510" 
d="M481 610v-76h-178v-534h-96v534h-177v76h451z" />
    <glyph glyph-name="U" unicode="U" horiz-adv-x="610" 
d="M445 610h96v-352q0 -141 -61 -205.5t-182 -64.5q-229 0 -229 262v360h96v-352q0 -95 34.5 -141.5t110.5 -46.5q71 0 103 44t32 136v360z" />
    <glyph glyph-name="V" unicode="V" horiz-adv-x="563" 
d="M336 0h-108l-212 610h111l159 -512h2l155 512h104z" />
    <glyph glyph-name="W" unicode="W" horiz-adv-x="811" 
d="M271 0h-109l-140 610h98l104 -510h2l137 510h86l141 -510h2l100 510h96l-147 -610h-106l-131 463h-2z" />
    <glyph glyph-name="X" unicode="X" horiz-adv-x="528" 
d="M325 316l197 -316h-115l-146 250h-2l-146 -250h-107l195 314v2l-187 294h111l143 -240h2l134 240h103l-182 -292v-2z" />
    <glyph glyph-name="Y" unicode="Y" horiz-adv-x="516" 
d="M307 0h-96v240l-205 370h111l142 -283h6l142 283h103l-203 -370v-240z" />
    <glyph glyph-name="Z" unicode="Z" horiz-adv-x="496" 
d="M459 0h-431l3 66l310 461l-1 7h-300l6 76h409l5 -58l-311 -468l2 -6h316z" />
    <glyph glyph-name="bracketleft" unicode="[" horiz-adv-x="324" 
d="M276 -84l-6 -68h-186l4 869h190l7 -69l-113 1l-5 -731z" />
    <glyph glyph-name="backslash" unicode="\" horiz-adv-x="309" 
d="M106 742l173 -819h-76l-173 819h76z" />
    <glyph glyph-name="bracketright" unicode="]" horiz-adv-x="324" 
d="M240 -152h-186l-6 68l109 2l-5 731l-113 -1l7 69h190z" />
    <glyph glyph-name="asciicircum" unicode="^" horiz-adv-x="447" 
d="M90 322q-35 2 -70 19l175 269h59l173 -269q-35 -16 -70 -19l-124 190h-16z" />
    <glyph glyph-name="underscore" unicode="_" horiz-adv-x="626" 
d="M568 0h-516l5 72h517z" />
    <glyph glyph-name="grave" unicode="`" horiz-adv-x="443" 
d="M105 751q45 18 107 20l108 -182h-75z" />
    <glyph glyph-name="a" unicode="a" horiz-adv-x="508" 
d="M110 14.5q-34 21.5 -50 54.5t-16 68q0 47 21.5 83.5t58.5 54.5q50 27 163 27q40 0 59 -3v11q0 45 -8.5 69.5t-32 36t-68.5 11.5q-36 0 -79 -7t-81 -19l5 77q88 27 170 27q97 0 142 -42t45 -136v-327h-80l-11 59q-63 -66 -154 -66q-50 0 -84 21.5zM286.5 83.5
q32.5 13.5 58.5 42.5v110l-22 1q-30 2 -47 2q-41 0 -70 -4t-55 -18q-16 -22 -16 -65q0 -38 22.5 -60t63.5 -22q33 0 65.5 13.5z" />
    <glyph glyph-name="b" unicode="b" horiz-adv-x="538" 
d="M159 -6.5q-44 4.5 -85 14.5v684l93 12v-258q40 31 74 44.5t72 13.5q86 0 135 -57.5t49 -174.5q0 -92 -33.5 -155.5t-93 -95.5t-137.5 -32q-30 0 -74 4.5zM352 89q27 36 37.5 77t10.5 91q0 83 -27 125.5t-92 42.5q-56 0 -114 -45v-308q32 -7 79 -7q66 0 106 24z" />
    <glyph glyph-name="c" unicode="c" horiz-adv-x="439" 
d="M151.5 17q-50.5 28 -80.5 85t-30 139q0 81 30 141t85 92t127 32q71 0 117 -21l-6 -77q-68 17 -121 17q-56 0 -89 -26q-47 -49 -47 -149q0 -91 44 -135.5t113 -44.5q45 0 112 18l-3 -78q-51 -21 -139 -21q-62 0 -112.5 28z" />
    <glyph glyph-name="d" unicode="d" horiz-adv-x="538" 
d="M93 53.5q-51 61.5 -51 176.5q0 89 35 150t93 91t128 30q49 0 74 -5v196l92 12v-704h-77l-7 59q-66 -67 -149 -67q-87 0 -138 61.5zM372 124v293q-36 12 -83 12q-53 0 -98 -22q-26 -24 -39.5 -65.5t-13.5 -95.5q0 -176 123 -176q61 0 111 54z" />
    <glyph glyph-name="e" unicode="e" horiz-adv-x="512" 
d="M467 230h-327q4 -86 44.5 -125.5t115.5 -39.5q73 0 146 22l-5 -71q-37 -14 -78 -20.5t-76 -6.5q-115 0 -178 64.5t-63 188.5q0 76 26.5 136t79 94t125.5 34q94 0 145 -51.5t51 -148.5q0 -48 -6 -76zM184 404q-35 -45 -43 -113h242q-3 142 -110 142q-55 0 -89 -29z" />
    <glyph glyph-name="f" unicode="f" horiz-adv-x="366" 
d="M209 565v-73h142l-5 -73h-137v-419h-93v420h-86l3 67l83 5v62q0 155 168 155q45 0 92 -10l-13 -74q-44 7 -86 7q-43 0 -62 -16q-6 -22 -6 -51z" />
    <glyph glyph-name="g" unicode="g" horiz-adv-x="506" 
d="M87.5 -178.5q-55.5 33.5 -55.5 104.5q0 41 19.5 73t58.5 60v2q-26 22 -26 60q0 43 31 71v2q-73 47 -73 134q0 50 27.5 89t74.5 60.5t105 21.5q29 0 71 -7l180 1l-5 -60l-102 4l-1 -2q45 -35 45 -98q0 -52 -28 -89.5t-75 -57t-103 -19.5q-13 0 -56 5q-13 -10 -13 -31
q0 -14 6.5 -21t26 -10t61.5 -5q83 -4 131 -18.5t69.5 -43.5t21.5 -76q0 -52 -30.5 -93.5t-87.5 -65.5t-132 -24q-85 0 -140.5 33.5zM312 248q34 31 34 86q0 103 -107 103q-37 0 -68 -16q-36 -36 -36 -84q0 -47 28 -75t84 -28q36 0 65 14zM354.5 -114q42.5 25 42.5 64
q0 29 -13 45.5t-46.5 25.5t-99.5 13q-61 4 -77 7q-23 -25 -34.5 -47t-11.5 -46q0 -43 36 -65t94 -22q67 0 109.5 25z" />
    <glyph glyph-name="h" unicode="h" horiz-adv-x="557" 
d="M453 467.5q35 -36.5 35 -115.5v-352h-92v334q0 47 -22.5 68.5t-67.5 21.5q-68 0 -139 -41v-383h-93v692l93 12l-1 -260q47 30 90 45t91 15q71 0 106 -36.5z" />
    <glyph glyph-name="i" unicode="i" horiz-adv-x="268" 
d="M194 0h-92v418l-76 4l4 70h164v-492zM93 571q-9 49 -10 97q33 5 71 5q24 0 36 -1l-7 -101h-90z" />
    <glyph glyph-name="j" unicode="j" horiz-adv-x="290" 
d="M6 -194v80q33 -5 49 -5q39 0 56 20q12 21 12 67v448l-81 3l5 73h169v-504q0 -90 -39.5 -139.5t-107.5 -49.5q-36 0 -63 7zM113 571q-9 49 -10 97q33 5 71 5q24 0 36 -1l-7 -101h-90z" />
    <glyph glyph-name="k" unicode="k" horiz-adv-x="505" 
d="M448 73l53 -7l-6 -68q-26 -6 -62 -6q-48 0 -66 31l-134 207h-2l-64 -54v-176h-93v692l93 12v-442h2l215 236l100 -6l-188 -209v-2z" />
    <glyph glyph-name="l" unicode="l" horiz-adv-x="266" 
d="M243 2q-37 -8 -79 -8q-26 0 -44.5 4t-31.5 16q-12 12 -15.5 32.5t-3.5 54.5v591l92 12v-584q0 -15 2 -43l85 -6z" />
    <glyph glyph-name="m" unicode="m" horiz-adv-x="858" 
d="M74 0v490l87 11l3 -59q47 32 89 47t85 15q89 0 122 -61q55 31 101.5 46t88.5 15q70 0 104.5 -36.5t34.5 -115.5v-352h-92v334q0 47 -21.5 68.5t-66.5 21.5q-63 0 -133 -39q2 -20 2 -34v-351h-92v334q0 47 -22 68.5t-67 21.5q-63 0 -130 -40v-384h-93z" />
    <glyph glyph-name="n" unicode="n" horiz-adv-x="557" 
d="M74 0v490l87 11l3 -62q49 32 92 48.5t90 16.5q71 0 106.5 -36.5t35.5 -115.5v-352h-92v334q0 47 -22.5 68.5t-67.5 21.5q-68 0 -139 -45v-379h-93z" />
    <glyph glyph-name="o" unicode="o" horiz-adv-x="550" 
d="M147.5 18q-50.5 30 -78 85t-27.5 130q0 83 30 144.5t85.5 94.5t130.5 33q65 0 115 -30t78 -85t28 -129q0 -83 -30 -144.5t-85 -95t-128 -33.5q-68 0 -118.5 30zM381 106q31 55 31 144q0 90 -37 135t-99 45q-34 0 -57 -10t-45 -32q-36 -53 -36 -142q0 -90 36.5 -136
t104.5 -46q64 0 102 42z" />
    <glyph glyph-name="p" unicode="p" horiz-adv-x="538" 
d="M74 -201v692l86 11l3 -57q35 31 69.5 45.5t72.5 14.5q92 0 142 -59t50 -177q0 -91 -35 -153.5t-93.5 -93.5t-129.5 -31q-36 0 -72 9v-189zM348 87q52 55 52 165q0 84 -28 130t-93 46q-58 0 -112 -45v-302q39 -16 83 -16q50 0 98 22z" />
    <glyph glyph-name="q" unicode="q" horiz-adv-x="537" 
d="M371 52q-34 -30 -67.5 -44.5t-73.5 -14.5q-88 0 -138.5 60.5t-50.5 178.5q0 88 34 149.5t93 93t133 31.5q81 0 162 -25v-670l-92 -12v253zM371 122l-1 296q-32 13 -77 13q-65 0 -109 -27q-47 -55 -47 -153q0 -85 31 -133t89 -48q63 0 114 52z" />
    <glyph glyph-name="r" unicode="r" horiz-adv-x="352" 
d="M74 0v490l88 11l2 -70q34 37 64.5 54t62.5 17q26 0 52 -10l-7 -85q-27 7 -53 7q-32 0 -59.5 -10t-56.5 -35v-369h-93z" />
    <glyph glyph-name="s" unicode="s" horiz-adv-x="417" 
d="M40 19l5 75q78 -31 145 -31q22 0 43.5 4t35.5 12q18 20 18 43q0 29 -25 48.5t-80 48.5q-45 22 -74 41t-49 46.5t-20 64.5q0 62 54.5 98.5t139.5 36.5q62 0 121 -18l-5 -74q-56 20 -120 20q-27 0 -50.5 -4t-35.5 -11q-19 -14 -19 -34q0 -23 23 -40t74 -42q49 -25 80.5 -45
t54 -50.5t22.5 -71.5q0 -40 -23 -73t-68 -53t-109 -20q-72 0 -138 29z" />
    <glyph glyph-name="t" unicode="t" horiz-adv-x="347" 
d="M313 419h-112v-340q22 -3 42 -3q33 0 68 6l-1 -74q-48 -14 -88 -14q-62 0 -87.5 23t-25.5 76v327h-75l4 70l76 4l11 119l76 10v-130l118 -1z" />
    <glyph glyph-name="u" unicode="u" horiz-adv-x="549" 
d="M105 25q-36 37 -36 116v351h92v-335q0 -48 22.5 -69t69.5 -21q32 0 63 12t66 44v369h93v-492h-80l-7 62q-45 -39 -86 -56.5t-91 -17.5q-70 0 -106 37z" />
    <glyph glyph-name="v" unicode="v" horiz-adv-x="464" 
d="M286 0h-108l-173 492h100l128 -410h2l128 410h96z" />
    <glyph glyph-name="w" unicode="w" horiz-adv-x="681" 
d="M550 0h-109l-97 352h-2l-106 -352h-99l-132 492h100l88 -402h2l110 402h82l111 -402h2l86 402h90z" />
    <glyph glyph-name="x" unicode="x" horiz-adv-x="465" 
d="M290 254l171 -254h-109l-125 202h-2l-123 -202h-98l166 256v2l-156 234h104l116 -193h2l110 193h97l-153 -236v-2z" />
    <glyph glyph-name="y" unicode="y" horiz-adv-x="464" 
d="M244 90l117 402h98l-169 -483l-93 -201h-99l97 194v2l-190 488h102l135 -402h2z" />
    <glyph glyph-name="z" unicode="z" horiz-adv-x="429" 
d="M396 0h-366l3 65l259 355l-1 1l-246 -1l5 72h343l5 -60l-259 -354l1 -2h264z" />
    <glyph glyph-name="braceleft" unicode="{" horiz-adv-x="296" 
d="M137 283q26 -19 39.5 -47t13.5 -58q0 -21 -4.5 -42t-13.5 -53q-19 -61 -19 -96t18 -55.5t59 -20.5q24 0 40 1l-5 -65q-20 -7 -50 -7q-82 0 -115.5 39.5t-33.5 100.5q0 32 5.5 55t15.5 53q10 26 14.5 45t4.5 44q0 21 -6 41t-17 29l-67 -6q-7 24 -7 47q0 25 7 47l67 -6
q11 9 17 28.5t6 39.5q0 25 -5 44.5t-14 45.5q-10 30 -15.5 53t-5.5 55q0 60 33.5 99.5t115.5 39.5q30 0 50 -7l5 -65q-16 1 -40 1q-77 0 -77 -74q0 -34 19 -95q9 -32 13.5 -53.5t4.5 -42.5q0 -31 -14 -60.5t-39 -47.5v-7z" />
    <glyph glyph-name="bar" unicode="|" horiz-adv-x="236" 
d="M152 -182h-68v901h68v-901z" />
    <glyph glyph-name="braceright" unicode="}" horiz-adv-x="296" 
d="M159 292q-25 18 -39 47.5t-14 60.5q0 35 19 96q9 32 13.5 53t4.5 42q0 74 -77 74q-24 0 -40 -1l5 65q20 7 50 7q82 0 115.5 -39.5t33.5 -99.5q0 -32 -5.5 -55t-15.5 -53q-9 -26 -14 -45.5t-5 -44.5q0 -20 6 -39.5t17 -28.5l67 6q7 -22 7 -47q0 -23 -7 -47l-67 6
q-11 -9 -17 -29t-6 -41q0 -25 4.5 -44t14.5 -45q10 -30 15.5 -53t5.5 -55q0 -61 -33.5 -100.5t-115.5 -39.5q-30 0 -50 7l-5 65q16 -1 40 -1q41 0 59 20.5t18 55.5t-19 96q-9 32 -13.5 53t-4.5 42q0 30 13.5 58t39.5 47v7z" />
    <glyph glyph-name="asciitilde" unicode="~" horiz-adv-x="485" 
d="M44 319q25 16 56.5 26t63.5 10q24 0 43.5 -4.5t47.5 -12.5q26 -8 42 -12t36 -4q55 0 108 33v-80q-53 -35 -110 -35q-19 0 -37.5 4t-42.5 12q-51 17 -85 17q-60 0 -122 -33v79z" />
    <glyph glyph-name="exclamdown" unicode="&#xa1;" horiz-adv-x="304" 
d="M188 611q8 -51 9 -92q-30 -5 -64 -5q-22 0 -33 1q2 50 6 96h82zM118 450h63l24 -446l-109 -15z" />
    <glyph glyph-name="cent" unicode="&#xa2;" horiz-adv-x="463" 
d="M185.5 126q45.5 -51 137.5 -51q48 0 104 14l-3 -72q-56 -14 -102 -17l-3 -100h-80l-3 104q-93 16 -142.5 83.5t-49.5 169.5t50 170.5t142 87.5l3 110h80l3 -103q58 -3 107 -20l-7 -73q-65 18 -118 18q-66 0 -111 -30q-53 -55 -53 -149q0 -91 45.5 -142z" />
    <glyph glyph-name="sterling" unicode="&#xa3;" horiz-adv-x="509" 
d="M180 71h277l-7 -71h-411v66l55 8q19 49 25 107h-71l6 55h69q1 15 1 47v12h-76l6 55h74q14 101 67.5 145t146.5 44q33 0 58 -4.5t59 -15.5l-10 -73q-32 10 -58 14t-56 4q-74 0 -98 -34q-17 -38 -21 -80h234l-5 -55h-231v-2q-1 -19 -1 -57h237l-5 -55h-236q-7 -59 -30 -108
z" />
    <glyph glyph-name="currency" unicode="&#xa4;" horiz-adv-x="509" 
d="M467 73l-53 -53l-72 81q-39 -24 -93 -24q-49 0 -85 21l-69 -78l-54 52l73 73q-29 43 -29 106q0 68 31 114l-75 74l53 54l71 -81q39 24 93 24q50 0 85 -20l70 78l53 -54l-72 -72q29 -44 29 -108q0 -65 -31 -112zM314 165q26 33 26 85q0 57 -23.5 87t-66.5 30
q-29 0 -55 -16q-27 -33 -27 -91q0 -54 24 -83.5t66 -29.5q36 0 56 18z" />
    <glyph glyph-name="yen" unicode="&#xa5;" horiz-adv-x="509" 
d="M452 209h-141l-9 -16v-39h156l-6 -55h-150v-99h-93v99h-154l6 55h148v39l-9 16h-145l6 54h110l-145 266h99l128 -260h9l130 260h93l-145 -266h118z" />
    <glyph glyph-name="brokenbar" unicode="&#xa6;" horiz-adv-x="236" 
d="M152 372h-68v347h68v-347zM152 -182h-68v348h68v-348z" />
    <glyph glyph-name="section" unicode="&#xa7;" horiz-adv-x="574" 
d="M154 -200.5q-42 9.5 -84 27.5l25 75q33 -19 71 -28t73 -9q9 9 16.5 27t7.5 43q0 51 -23 100.5t-69 125.5q-49 78 -74.5 134t-25.5 116q0 63 32.5 110t93.5 72.5t144 25.5q94 0 171 -36l-27 -73q-63 36 -150 36q-11 -18 -15.5 -34.5t-4.5 -38.5q0 -57 23.5 -106.5
t71.5 -121.5q49 -73 74 -126t25 -116q0 -99 -66 -156t-192 -57q-55 0 -97 9.5zM439 -10q0 54 -23 102.5t-71 119.5q-51 74 -77 129.5t-26 119.5q0 21 4 38.5t15 41.5q-59 -8 -88 -36.5t-29 -80.5q0 -51 24 -102.5t71 -127.5q50 -82 74.5 -135.5t24.5 -109.5q0 -48 -23 -86
q124 10 124 127z" />
    <glyph glyph-name="dieresis" unicode="&#xa8;" horiz-adv-x="443" 
d="M83 586q-9 49 -10 97q33 5 71 5q24 0 36 -1l-7 -101h-90zM272 586q-9 49 -10 97q33 5 71 5q24 0 36 -1l-7 -101h-90z" />
    <glyph glyph-name="copyright" unicode="&#xa9;" horiz-adv-x="808" 
d="M213 -42.5q-83 45.5 -128 130.5t-45 199q0 119 47 206t131 133.5t194 46.5q109 0 189.5 -45.5t123.5 -130.5t43 -199q0 -116 -44 -203.5t-126 -135t-193 -47.5q-109 0 -192 45.5zM521 -6q53 18 90 51q41 44 63.5 110.5t22.5 143.5q0 96 -34.5 166t-99.5 107t-153 37
q-60 0 -112.5 -17.5t-89.5 -49.5q-46 -40 -71.5 -104.5t-25.5 -148.5q0 -94 36 -165t103 -109.5t157 -38.5q61 0 114 18zM276 136q-53 57 -53 152q0 99 56 157.5t157 58.5q53 0 99 -16l-6 -59q-53 14 -95 14q-54 0 -90 -24q-43 -45 -43 -121q0 -74 37 -115.5t111 -41.5
q43 0 84 10l-2 -58q-53 -14 -104 -14q-98 0 -151 57z" />
    <glyph glyph-name="ordfeminine" unicode="&#xaa;" horiz-adv-x="296" 
d="M47.5 342q-22.5 27 -22.5 61q0 27 12.5 48.5t34.5 33.5q35 17 100 17q23 0 33 -2v8q0 33 -11.5 47t-49.5 14q-51 0 -99 -14l4 54q56 17 105 17q64 0 90.5 -27.5t26.5 -81.5v-198h-55l-8 34q-38 -38 -92 -38q-46 0 -68.5 27zM172 374.5q18 7.5 33 22.5v62q-24 2 -39 2
q-23 0 -39 -2.5t-30 -10.5q-8 -12 -8 -35q0 -21 12.5 -33.5t35.5 -12.5q17 0 35 7.5z" />
    <glyph glyph-name="guillemotleft" unicode="&#xab;" horiz-adv-x="545" 
d="M273 112l-65 -44l-134 187v30l134 187l65 -45l-104 -152v-10zM472 112l-65 -44l-134 187v30l134 187l65 -45l-104 -152v-10z" />
    <glyph glyph-name="logicalnot" unicode="&#xac;" horiz-adv-x="600" 
d="M501 147l-90 -10v136h-318l7 79h401v-205z" />
    <glyph glyph-name="uni00AD" unicode="&#xad;" horiz-adv-x="385" 
d="M326 277h-274l6 70h275z" />
    <glyph glyph-name="registered" unicode="&#xae;" horiz-adv-x="808" 
d="M213 -42.5q-83 45.5 -128 130.5t-45 199q0 119 47 206t131 133.5t194 46.5q109 0 189.5 -45.5t123.5 -130.5t43 -199q0 -116 -44 -203.5t-126 -135t-193 -47.5q-109 0 -192 45.5zM521 -6q53 18 90 51q41 44 63.5 110.5t22.5 143.5q0 96 -34.5 166t-99.5 107t-153 37
q-60 0 -112.5 -17.5t-89.5 -49.5q-46 -40 -71.5 -104.5t-25.5 -148.5q0 -94 36 -165t103 -109.5t157 -38.5q61 0 114 18zM514.5 87q-12.5 6 -23.5 21l-82 132l-80 -2v-153h-73v409q71 8 134 8q75 0 114 -25t39 -87q0 -80 -73 -127v-1l88 -119l39 -7l-5 -51q-32 -4 -43 -4
q-22 0 -34.5 6zM364 290q36 0 64 4q18 15 28.5 37t10.5 48q0 36 -19 51.5t-64 15.5q-30 0 -55 -2v-154h35z" />
    <glyph glyph-name="macron" unicode="&#xaf;" horiz-adv-x="443" 
d="M383 595h-329l5 67h330z" />
    <glyph glyph-name="degree" unicode="&#xb0;" horiz-adv-x="336" 
d="M62 402q-39 41 -39 107q0 69 41.5 111t108.5 42q65 0 102 -40t37 -107q0 -69 -40.5 -111.5t-106.5 -42.5q-64 0 -103 41zM218 441q18 27 18 67q0 91 -73 91q-24 0 -43 -14q-20 -26 -20 -69q0 -45 19.5 -68.5t54.5 -23.5q29 0 44 17z" />
    <glyph glyph-name="plusminus" unicode="&#xb1;" horiz-adv-x="451" 
d="M263 166h-84v157h-141l3 68h138v154l84 10v-164h149l-4 -68h-145v-157zM44 19v70h369v-70h-369z" />
    <glyph glyph-name="uni00B2" unicode="&#xb2;" horiz-adv-x="308" 
d="M42 436q62 49 90 72.5t46 47t18 44.5q0 22 -15.5 32.5t-42.5 10.5q-39 0 -83 -20l3 54q48 27 96 27q54 0 85.5 -25t31.5 -68q0 -39 -30.5 -73t-103.5 -90v-3h144l-3 -58h-234z" />
    <glyph glyph-name="uni00B3" unicode="&#xb3;" horiz-adv-x="283" 
d="M40 395l10 51q36 -10 74 -10q76 0 76 42q0 24 -29.5 35.5t-93.5 11.5l2 43q108 5 108 49q0 18 -16.5 25.5t-46.5 7.5q-38 0 -77 -11l4 50q45 16 91 16q60 0 89.5 -21t29.5 -55q0 -26 -16.5 -45.5t-52.5 -29.5q37 -6 58 -26t21 -49q0 -43 -40.5 -70t-107.5 -27
q-50 0 -83 13z" />
    <glyph glyph-name="acute" unicode="&#xb4;" horiz-adv-x="443" 
d="M232 589h-75l108 184q59 -3 108 -22z" />
    <glyph glyph-name="uni00B5" unicode="&#xb5;" horiz-adv-x="565" 
d="M398 492h93v-492h-80l-8 62q-38 -39 -73.5 -56t-77.5 -17q-49 0 -78 24v-202l-90 -12v693h93v-335q0 -49 22.5 -70t71.5 -21q31 0 61.5 12.5t65.5 44.5v369z" />
    <glyph glyph-name="paragraph" unicode="&#xb6;" horiz-adv-x="665" 
d="M335 -209v319l-3 2q-49 -25 -113 -25q-78 0 -128 61t-50 180q0 139 76.5 210.5t201.5 71.5h97v-808zM561 -179l-82 -11v800h160l-5 -72h-73v-717zM292.5 166q19.5 3 42.5 12v359h-30q-72 0 -120 -29q-26 -36 -36 -75t-10 -89q0 -93 27.5 -137t82.5 -44q24 0 43.5 3z" />
    <glyph glyph-name="periodcentered" unicode="&#xb7;" horiz-adv-x="186" 
d="M53 243q-8 51 -9 92q30 5 64 5q22 0 33 -1q-2 -50 -6 -96h-82z" />
    <glyph glyph-name="cedilla" unicode="&#xb8;" horiz-adv-x="443" 
d="M287 -72q18 -9 26 -19t8 -24q0 -22 -13.5 -46t-34.5 -52h-65l38 85l-46 24q-27 12 -27 34q0 12 8 32l24 61l74 -1l-34 -72z" />
    <glyph glyph-name="uni00B9" unicode="&#xb9;" horiz-adv-x="229" 
d="M192 387h-75v249l-75 -6v47l77 14l32 12h41v-316z" />
    <glyph glyph-name="ordmasculine" unicode="&#xba;" horiz-adv-x="322" 
d="M53 346.5q-38 40.5 -38 110.5q0 78 42 123.5t112 45.5q61 0 99 -41t38 -110q0 -78 -41.5 -123.5t-110.5 -45.5q-63 0 -101 40.5zM221 380q19 33 19 88q0 54 -22 81t-57 27q-19 0 -32.5 -5.5t-26.5 -18.5q-20 -33 -20 -86q0 -54 21.5 -82t59.5 -28q37 0 58 24z" />
    <glyph glyph-name="guillemotright" unicode="&#xbb;" horiz-adv-x="545" 
d="M272 255l-134 -187l-65 44l104 153v10l-104 152l65 45l134 -187v-30zM471 255l-134 -187l-65 44l104 153v10l-104 152l65 45l134 -187v-30z" />
    <glyph glyph-name="onequarter" unicode="&#xbc;" horiz-adv-x="602" 
d="M192 307h-75v249l-75 -6v47l77 14l32 12h41v-316zM132 1l-68 -1l398 619l66 1zM549 126h42v-50h-42v-76h-68v76h-143l-7 51l131 184h87v-185zM391 130l1 -4h89v121h-4z" />
    <glyph glyph-name="onehalf" unicode="&#xbd;" horiz-adv-x="640" 
d="M192 307h-75v249l-75 -6v47l77 14l32 12h41v-316zM132 1l-68 -1l398 619l66 1zM374 49q62 49 90 72.5t46 47t18 44.5q0 22 -15.5 32.5t-42.5 10.5q-39 0 -83 -20l3 54q48 27 96 27q54 0 85.5 -25t31.5 -68q0 -39 -30.5 -73t-103.5 -90v-3h144l-3 -58h-234z" />
    <glyph glyph-name="threequarters" unicode="&#xbe;" horiz-adv-x="655" 
d="M40 315l10 51q36 -10 74 -10q76 0 76 42q0 24 -29.5 35.5t-93.5 11.5l2 43q108 5 108 49q0 18 -16.5 25.5t-46.5 7.5q-38 0 -77 -11l4 50q45 16 91 16q60 0 89.5 -21t29.5 -55q0 -26 -16.5 -45.5t-52.5 -29.5q37 -6 58 -26t21 -49q0 -43 -40.5 -70t-107.5 -27
q-50 0 -83 13zM185 1l-68 -1l398 619l66 1zM602 126h42v-50h-42v-76h-68v76h-143l-7 51l131 184h87v-185zM444 130l1 -4h89v121h-4z" />
    <glyph glyph-name="questiondown" unicode="&#xbf;" horiz-adv-x="404" 
d="M280 610q8 -51 9 -92q-30 -5 -64 -5q-22 0 -33 1q2 50 6 96h82zM273 449q13 -32 13 -66q0 -23 -15.5 -47t-47.5 -61q-36 -42 -54 -70.5t-18 -57.5q0 -36 23 -55t67 -19q30 0 67 13.5t64 33.5l-8 -89q-26 -18 -63 -29t-76 -11q-72 0 -119.5 36t-47.5 105q0 47 24 86.5
t68 91.5q44 49 55 75l-1 64h69z" />
    <glyph glyph-name="Agrave" unicode="&#xc0;" horiz-adv-x="548" 
d="M538 0h-104l-41 136h-243l-43 -136h-98l212 610l112 3zM272 527l-100 -320h199l-97 320h-2zM125 834q33 5 81 5q22 0 46 -2l100 -142h-90z" />
    <glyph glyph-name="Aacute" unicode="&#xc1;" horiz-adv-x="548" 
d="M538 0h-104l-41 136h-243l-43 -136h-98l212 610l112 3zM272 527l-100 -320h199l-97 320h-2zM306 837q24 2 52 2q55 0 79 -5l-141 -139h-89z" />
    <glyph glyph-name="Acircumflex" unicode="&#xc2;" horiz-adv-x="548" 
d="M538 0h-104l-41 136h-243l-43 -136h-98l212 610l112 3zM272 527l-100 -320h199l-97 320h-2zM190 695q-59 0 -91 4l117 122h114l119 -122q-33 -4 -93 -4l-75 59h-15z" />
    <glyph glyph-name="Atilde" unicode="&#xc3;" horiz-adv-x="548" 
d="M538 0h-104l-41 136h-243l-43 -136h-98l212 610l112 3zM272 527l-100 -320h199l-97 320h-2zM325.5 701q-30.5 10 -71.5 28q-19 9 -36.5 15.5t-26.5 6.5q-17 0 -30.5 -16.5t-21.5 -39.5l-65 17q17 53 44.5 81.5t71.5 28.5q23 0 48 -7.5t63 -23.5q55 -23 87 -31
q12 7 21.5 23t13.5 34l70 -16q-17 -57 -43 -83.5t-66 -26.5q-28 0 -58.5 10z" />
    <glyph glyph-name="Adieresis" unicode="&#xc4;" horiz-adv-x="548" 
d="M538 0h-104l-41 136h-243l-43 -136h-98l212 610l112 3zM272 527l-100 -320h199l-97 320h-2zM114 692q-9 49 -10 97q33 5 71 5q24 0 36 -1l-7 -101h-90zM350 692q-9 49 -10 97q33 5 71 5q24 0 36 -1l-7 -101h-90z" />
    <glyph glyph-name="Aring" unicode="&#xc5;" horiz-adv-x="548" 
d="M538 0h-104l-41 136h-243l-43 -136h-98l212 610l112 3zM272 527l-100 -320h199l-97 320h-2zM180 692q-32 27 -32 76q0 50 35 78.5t96 28.5q54 0 88 -27.5t34 -75.5q0 -50 -35 -78.5t-97 -28.5q-57 0 -89 27zM318 724q15 16 15 42q0 28 -15 43t-44 15q-31 0 -46 -11
q-12 -16 -12 -41q0 -28 16.5 -42.5t46.5 -14.5q24 0 39 9z" />
    <glyph glyph-name="AE" unicode="&#xc6;" horiz-adv-x="740" 
d="M654 277h-238v-201h271l-5 -76h-350v165h-187l-79 -165h-98l305 610h409l5 -74h-272v-186h239v-73zM324 537l-145 -302h153v302h-8z" />
    <glyph glyph-name="Ccedilla" unicode="&#xc7;" horiz-adv-x="505" 
d="M195 138.5q53 -63.5 160 -63.5q58 0 118 16l-4 -80q-52 -13 -94 -17l-24 -51l29 -15q17 -9 24.5 -19t7.5 -24q0 -22 -13.5 -46.5t-33.5 -51.5h-74l39 89l-38 20q-26 12 -26 34q0 15 8 32l12 31q-119 12 -182.5 94t-63.5 214q0 96 34.5 168t102.5 112t165 40q68 0 133 -20
l-9 -79q-61 17 -126 17q-43 0 -74.5 -9t-61.5 -30q-29 -34 -45.5 -77.5t-16.5 -108.5q0 -112 53 -175.5z" />
    <glyph glyph-name="Egrave" unicode="&#xc8;" horiz-adv-x="498" 
d="M180 278v-202h265l-6 -76h-355v610h355l5 -72h-264v-187h232l-5 -73h-227zM112 834q33 5 81 5q22 0 46 -2l100 -142h-90z" />
    <glyph glyph-name="Eacute" unicode="&#xc9;" horiz-adv-x="498" 
d="M180 278v-202h265l-6 -76h-355v610h355l5 -72h-264v-187h232l-5 -73h-227zM293 837q24 2 52 2q55 0 79 -5l-141 -139h-89z" />
    <glyph glyph-name="Ecircumflex" unicode="&#xca;" horiz-adv-x="498" 
d="M180 278v-202h265l-6 -76h-355v610h355l5 -72h-264v-187h232l-5 -73h-227zM177 695q-59 0 -91 4l117 122h114l119 -122q-33 -4 -93 -4l-75 59h-15z" />
    <glyph glyph-name="Edieresis" unicode="&#xcb;" horiz-adv-x="498" 
d="M180 278v-202h265l-6 -76h-355v610h355l5 -72h-264v-187h232l-5 -73h-227zM101 692q-9 49 -10 97q33 5 71 5q24 0 36 -1l-7 -101h-90zM337 692q-9 49 -10 97q33 5 71 5q24 0 36 -1l-7 -101h-90z" />
    <glyph glyph-name="Igrave" unicode="&#xcc;" horiz-adv-x="325" 
d="M294 542l-83 -3h-1v-467h1l83 -4v-68h-263v68l83 4v467l-83 3v68h263v-68zM14 834q33 5 81 5q22 0 46 -2l100 -142h-90z" />
    <glyph glyph-name="Iacute" unicode="&#xcd;" horiz-adv-x="325" 
d="M294 542l-83 -3h-1v-467h1l83 -4v-68h-263v68l83 4v467l-83 3v68h263v-68zM195 837q24 2 52 2q55 0 79 -5l-141 -139h-89z" />
    <glyph glyph-name="Icircumflex" unicode="&#xce;" horiz-adv-x="325" 
d="M294 542l-83 -3h-1v-467h1l83 -4v-68h-263v68l83 4v467l-83 3v68h263v-68zM79 695q-59 0 -91 4l117 122h114l119 -122q-33 -4 -93 -4l-75 59h-15z" />
    <glyph glyph-name="Idieresis" unicode="&#xcf;" horiz-adv-x="325" 
d="M294 542l-83 -3h-1v-467h1l83 -4v-68h-263v68l83 4v467l-83 3v68h263v-68zM25 689q-9 49 -10 97q33 5 71 5q24 0 36 -1l-7 -101h-90zM214 689q-9 49 -10 97q33 5 71 5q24 0 36 -1l-7 -101h-90z" />
    <glyph glyph-name="Eth" unicode="&#xd0;" horiz-adv-x="613" 
d="M487.5 554.5q85.5 -64.5 85.5 -225.5q0 -165 -81 -250t-231 -85q-69 0 -177 7v279h-75v65h75v265q92 9 194 9q124 0 209.5 -64.5zM444.5 175.5q26.5 55.5 26.5 143.5q0 119 -52 170t-152 51q-27 0 -87 -2v-193h86l-5 -65h-81v-201q48 -3 91 -3q54 0 91 11
q56 33 82.5 88.5z" />
    <glyph glyph-name="Ntilde" unicode="&#xd1;" horiz-adv-x="668" 
d="M168 0h-84v610h98l319 -472h2l-4 472h85v-610h-91l-325 479h-2zM385.5 701q-30.5 10 -71.5 28q-19 9 -36.5 15.5t-26.5 6.5q-17 0 -30.5 -16.5t-21.5 -39.5l-65 17q17 53 44.5 81.5t71.5 28.5q23 0 48 -7.5t63 -23.5q55 -23 87 -31q12 7 21.5 23t13.5 34l70 -16
q-17 -57 -43 -83.5t-66 -26.5q-28 0 -58.5 10z" />
    <glyph glyph-name="Ograve" unicode="&#xd2;" horiz-adv-x="630" 
d="M167.5 27.5q-61.5 39.5 -94.5 110.5t-33 162q0 97 35.5 169.5t100 111.5t149.5 39q79 0 139.5 -38.5t93 -109t32.5 -161.5q0 -96 -35 -169.5t-98 -113.5t-146 -40q-82 0 -143.5 39.5zM384 77q28 9 52 31q27 37 39.5 82.5t12.5 106.5q0 116 -47 179t-125 63
q-37 0 -62.5 -7t-52.5 -26q-59 -75 -59 -195q0 -114 48.5 -178.5t129.5 -64.5q36 0 64 9zM166 834q33 5 81 5q22 0 46 -2l100 -142h-90z" />
    <glyph glyph-name="Oacute" unicode="&#xd3;" horiz-adv-x="630" 
d="M167.5 27.5q-61.5 39.5 -94.5 110.5t-33 162q0 97 35.5 169.5t100 111.5t149.5 39q79 0 139.5 -38.5t93 -109t32.5 -161.5q0 -96 -35 -169.5t-98 -113.5t-146 -40q-82 0 -143.5 39.5zM384 77q28 9 52 31q27 37 39.5 82.5t12.5 106.5q0 116 -47 179t-125 63
q-37 0 -62.5 -7t-52.5 -26q-59 -75 -59 -195q0 -114 48.5 -178.5t129.5 -64.5q36 0 64 9zM347 837q24 2 52 2q55 0 79 -5l-141 -139h-89z" />
    <glyph glyph-name="Ocircumflex" unicode="&#xd4;" horiz-adv-x="630" 
d="M167.5 27.5q-61.5 39.5 -94.5 110.5t-33 162q0 97 35.5 169.5t100 111.5t149.5 39q79 0 139.5 -38.5t93 -109t32.5 -161.5q0 -96 -35 -169.5t-98 -113.5t-146 -40q-82 0 -143.5 39.5zM384 77q28 9 52 31q27 37 39.5 82.5t12.5 106.5q0 116 -47 179t-125 63
q-37 0 -62.5 -7t-52.5 -26q-59 -75 -59 -195q0 -114 48.5 -178.5t129.5 -64.5q36 0 64 9zM231 695q-59 0 -91 4l117 122h114l119 -122q-33 -4 -93 -4l-75 59h-15z" />
    <glyph glyph-name="Otilde" unicode="&#xd5;" horiz-adv-x="630" 
d="M167.5 27.5q-61.5 39.5 -94.5 110.5t-33 162q0 97 35.5 169.5t100 111.5t149.5 39q79 0 139.5 -38.5t93 -109t32.5 -161.5q0 -96 -35 -169.5t-98 -113.5t-146 -40q-82 0 -143.5 39.5zM384 77q28 9 52 31q27 37 39.5 82.5t12.5 106.5q0 116 -47 179t-125 63
q-37 0 -62.5 -7t-52.5 -26q-59 -75 -59 -195q0 -114 48.5 -178.5t129.5 -64.5q36 0 64 9zM366.5 701q-30.5 10 -71.5 28q-19 9 -36.5 15.5t-26.5 6.5q-17 0 -30.5 -16.5t-21.5 -39.5l-65 17q17 53 44.5 81.5t71.5 28.5q23 0 48 -7.5t63 -23.5q55 -23 87 -31q12 7 21.5 23
t13.5 34l70 -16q-17 -57 -43 -83.5t-66 -26.5q-28 0 -58.5 10z" />
    <glyph glyph-name="Odieresis" unicode="&#xd6;" horiz-adv-x="630" 
d="M167.5 27.5q-61.5 39.5 -94.5 110.5t-33 162q0 97 35.5 169.5t100 111.5t149.5 39q79 0 139.5 -38.5t93 -109t32.5 -161.5q0 -96 -35 -169.5t-98 -113.5t-146 -40q-82 0 -143.5 39.5zM384 77q28 9 52 31q27 37 39.5 82.5t12.5 106.5q0 116 -47 179t-125 63
q-37 0 -62.5 -7t-52.5 -26q-59 -75 -59 -195q0 -114 48.5 -178.5t129.5 -64.5q36 0 64 9zM155 692q-9 49 -10 97q33 5 71 5q24 0 36 -1l-7 -101h-90zM391 692q-9 49 -10 97q33 5 71 5q24 0 36 -1l-7 -101h-90z" />
    <glyph glyph-name="multiply" unicode="&#xd7;" horiz-adv-x="478" 
d="M236 223l-137 -142l-49 52l136 138v5l-138 133l51 51l137 -140h4l136 142l49 -52l-138 -134v-5l143 -140l-51 -52l-139 144h-4z" />
    <glyph glyph-name="Oslash" unicode="&#xd8;" horiz-adv-x="630" 
d="M494 558q46 -41 71 -104t25 -143q0 -96 -35 -169.5t-98 -113.5t-146 -40q-72 0 -126 30l-53 -92h-72l73 128q-45 42 -69 105.5t-24 140.5q0 97 35.5 169.5t100 111.5t149.5 39q63 0 116 -25l55 97h75zM183 143l214 374q-35 22 -81 22q-37 0 -62.5 -7t-52.5 -26
q-59 -75 -59 -195q0 -103 41 -168zM475.5 190.5q12.5 45.5 12.5 106.5q0 111 -44 174l-215 -376q39 -27 91 -27q36 0 64 9t52 31q27 37 39.5 82.5z" />
    <glyph glyph-name="Ugrave" unicode="&#xd9;" horiz-adv-x="610" 
d="M445 610h96v-352q0 -141 -61 -205.5t-182 -64.5q-229 0 -229 262v360h96v-352q0 -95 34.5 -141.5t110.5 -46.5q71 0 103 44t32 136v360zM156 834q33 5 81 5q22 0 46 -2l100 -142h-90z" />
    <glyph glyph-name="Uacute" unicode="&#xda;" horiz-adv-x="610" 
d="M445 610h96v-352q0 -141 -61 -205.5t-182 -64.5q-229 0 -229 262v360h96v-352q0 -95 34.5 -141.5t110.5 -46.5q71 0 103 44t32 136v360zM337 837q24 2 52 2q55 0 79 -5l-141 -139h-89z" />
    <glyph glyph-name="Ucircumflex" unicode="&#xdb;" horiz-adv-x="610" 
d="M445 610h96v-352q0 -141 -61 -205.5t-182 -64.5q-229 0 -229 262v360h96v-352q0 -95 34.5 -141.5t110.5 -46.5q71 0 103 44t32 136v360zM221 695q-59 0 -91 4l117 122h114l119 -122q-33 -4 -93 -4l-75 59h-15z" />
    <glyph glyph-name="Udieresis" unicode="&#xdc;" horiz-adv-x="610" 
d="M445 610h96v-352q0 -141 -61 -205.5t-182 -64.5q-229 0 -229 262v360h96v-352q0 -95 34.5 -141.5t110.5 -46.5q71 0 103 44t32 136v360zM145 692q-9 49 -10 97q33 5 71 5q24 0 36 -1l-7 -101h-90zM381 692q-9 49 -10 97q33 5 71 5q24 0 36 -1l-7 -101h-90z" />
    <glyph glyph-name="Yacute" unicode="&#xdd;" horiz-adv-x="516" 
d="M307 0h-96v240l-205 370h111l142 -283h6l142 283h103l-203 -370v-240zM290 837q24 2 52 2q55 0 79 -5l-141 -139h-89z" />
    <glyph glyph-name="Thorn" unicode="&#xde;" horiz-adv-x="541" 
d="M443 486.5q66 -44.5 66 -158.5q0 -120 -66.5 -174t-193.5 -54h-69v-100h-96v610h96v-81l73 2q124 0 190 -44.5zM396 240.5q14 32.5 14 78.5q0 55 -17.5 84.5t-53 41t-95.5 11.5l-64 -2v-278h83q57 0 95 14q24 18 38 50.5z" />
    <glyph glyph-name="germandbls" unicode="&#xdf;" horiz-adv-x="533" 
d="M392 593v8q-37 32 -103 32q-30 0 -59 -6.5t-49 -19.5q-14 -41 -14 -119v-488h-93v476q0 123 56 178t164 55q59 0 101 -14t63.5 -37.5t21.5 -49.5q0 -28 -25 -62l-117 -159v-5q12 -11 36 -31q52 -45 78 -71.5t41.5 -57.5t15.5 -71q0 -71 -48 -116.5t-141 -45.5
q-26 0 -45.5 5t-43.5 16l14 79q24 -11 44 -15t43 -4q20 0 35 3t33 13q7 11 10.5 27.5t3.5 30.5q0 37 -23 66t-79 78l-16 14q-22 19 -32.5 35.5t-10.5 35.5q0 34 37 85z" />
    <glyph glyph-name="agrave" unicode="&#xe0;" horiz-adv-x="508" 
d="M110 14.5q-34 21.5 -50 54.5t-16 68q0 47 21.5 83.5t58.5 54.5q50 27 163 27q40 0 59 -3v11q0 45 -8.5 69.5t-32 36t-68.5 11.5q-36 0 -79 -7t-81 -19l5 77q88 27 170 27q97 0 142 -42t45 -136v-327h-80l-11 59q-63 -66 -154 -66q-50 0 -84 21.5zM286.5 83.5
q32.5 13.5 58.5 42.5v110l-22 1q-30 2 -47 2q-41 0 -70 -4t-55 -18q-16 -22 -16 -65q0 -38 22.5 -60t63.5 -22q33 0 65.5 13.5zM130 736q45 18 107 20l108 -182h-75z" />
    <glyph glyph-name="aacute" unicode="&#xe1;" horiz-adv-x="508" 
d="M110 14.5q-34 21.5 -50 54.5t-16 68q0 47 21.5 83.5t58.5 54.5q50 27 163 27q40 0 59 -3v11q0 45 -8.5 69.5t-32 36t-68.5 11.5q-36 0 -79 -7t-81 -19l5 77q88 27 170 27q97 0 142 -42t45 -136v-327h-80l-11 59q-63 -66 -154 -66q-50 0 -84 21.5zM286.5 83.5
q32.5 13.5 58.5 42.5v110l-22 1q-30 2 -47 2q-41 0 -70 -4t-55 -18q-16 -22 -16 -65q0 -38 22.5 -60t63.5 -22q33 0 65.5 13.5zM257 574h-75l108 184q59 -3 108 -22z" />
    <glyph glyph-name="acircumflex" unicode="&#xe2;" horiz-adv-x="508" 
d="M110 14.5q-34 21.5 -50 54.5t-16 68q0 47 21.5 83.5t58.5 54.5q50 27 163 27q40 0 59 -3v11q0 45 -8.5 69.5t-32 36t-68.5 11.5q-36 0 -79 -7t-81 -19l5 77q88 27 170 27q97 0 142 -42t45 -136v-327h-80l-11 59q-63 -66 -154 -66q-50 0 -84 21.5zM286.5 83.5
q32.5 13.5 58.5 42.5v110l-22 1q-30 2 -47 2q-41 0 -70 -4t-55 -18q-16 -22 -16 -65q0 -38 22.5 -60t63.5 -22q33 0 65.5 13.5zM159 574q-40 1 -70 14l128 170h59l127 -170q-30 -13 -69 -14l-80 92h-16z" />
    <glyph glyph-name="atilde" unicode="&#xe3;" horiz-adv-x="508" 
d="M110 14.5q-34 21.5 -50 54.5t-16 68q0 47 21.5 83.5t58.5 54.5q50 27 163 27q40 0 59 -3v11q0 45 -8.5 69.5t-32 36t-68.5 11.5q-36 0 -79 -7t-81 -19l5 77q88 27 170 27q97 0 142 -42t45 -136v-327h-80l-11 59q-63 -66 -154 -66q-50 0 -84 21.5zM286.5 83.5
q32.5 13.5 58.5 42.5v110l-22 1q-30 2 -47 2q-41 0 -70 -4t-55 -18q-16 -22 -16 -65q0 -38 22.5 -60t63.5 -22q33 0 65.5 13.5zM285.5 581q-24.5 11 -59.5 31q-16 10 -30.5 17t-21.5 7q-11 0 -24.5 -19t-22.5 -42l-57 17q19 52 43.5 81t60.5 29q22 0 42.5 -8t52.5 -26
q35 -22 71 -35q25 21 40 63l58 -15q-39 -111 -106 -111q-22 0 -46.5 11z" />
    <glyph glyph-name="adieresis" unicode="&#xe4;" horiz-adv-x="508" 
d="M110 14.5q-34 21.5 -50 54.5t-16 68q0 47 21.5 83.5t58.5 54.5q50 27 163 27q40 0 59 -3v11q0 45 -8.5 69.5t-32 36t-68.5 11.5q-36 0 -79 -7t-81 -19l5 77q88 27 170 27q97 0 142 -42t45 -136v-327h-80l-11 59q-63 -66 -154 -66q-50 0 -84 21.5zM286.5 83.5
q32.5 13.5 58.5 42.5v110l-22 1q-30 2 -47 2q-41 0 -70 -4t-55 -18q-16 -22 -16 -65q0 -38 22.5 -60t63.5 -22q33 0 65.5 13.5zM108 571q-9 49 -10 97q33 5 71 5q24 0 36 -1l-7 -101h-90zM297 571q-9 49 -10 97q33 5 71 5q24 0 36 -1l-7 -101h-90z" />
    <glyph glyph-name="aring" unicode="&#xe5;" horiz-adv-x="508" 
d="M110 14.5q-34 21.5 -50 54.5t-16 68q0 47 21.5 83.5t58.5 54.5q50 27 163 27q40 0 59 -3v11q0 45 -8.5 69.5t-32 36t-68.5 11.5q-36 0 -79 -7t-81 -19l5 77q88 27 170 27q97 0 142 -42t45 -136v-327h-80l-11 59q-63 -66 -154 -66q-50 0 -84 21.5zM286.5 83.5
q32.5 13.5 58.5 42.5v110l-22 1q-30 2 -47 2q-41 0 -70 -4t-55 -18q-16 -22 -16 -65q0 -38 22.5 -60t63.5 -22q33 0 65.5 13.5zM155 581q-31 30 -31 83q0 54 34 85t93 31q52 0 84.5 -30.5t32.5 -83.5q0 -54 -33.5 -84.5t-93.5 -30.5q-55 0 -86 30zM293 610q12 21 12 50
q0 34 -15 51.5t-44 17.5q-31 0 -46 -12q-12 -17 -12 -49t16.5 -49t46.5 -17q23 0 42 8z" />
    <glyph glyph-name="ae" unicode="&#xe6;" horiz-adv-x="802" 
d="M110 14.5q-34 21.5 -50 54.5t-16 68q0 38 20 70t60 53q29 16 68.5 23t92.5 7q20 0 60 -2v19q1 44 -7 69.5t-32 39t-70 13.5q-36 0 -79.5 -8t-82.5 -22l6 75q85 32 171 32q57 0 95 -20.5t56 -65.5h8q24 42 65.5 64t97.5 22q86 0 138 -54t52 -155q0 -16 -1 -32.5t-6 -33.5
h-319q5 -85 45 -123.5t115 -38.5q67 0 139 18l-4 -71q-70 -23 -154 -23q-73 0 -122.5 29t-76.5 91h-7q-25 -59 -71 -89.5t-106 -30.5q-51 0 -85 21.5zM673 287q-3 74 -29.5 109.5t-78.5 35.5t-82 -25q-39 -44 -44 -120h234zM304.5 106.5q37.5 38.5 39.5 126.5q-42 2 -68 2
q-79 0 -123 -27q-20 -27 -20 -56q0 -39 21.5 -61.5t61.5 -22.5q51 0 88.5 38.5z" />
    <glyph glyph-name="ccedilla" unicode="&#xe7;" horiz-adv-x="439" 
d="M403 10q-41 -17 -96 -20l-19 -40l42 -22q18 -9 26 -19t8 -24q0 -22 -13.5 -46t-34.5 -52h-65l38 85l-46 24q-27 12 -27 34q0 12 8 32l11 29q-85 10 -139.5 74t-54.5 176q0 81 30 141t85 92t127 32q71 0 117 -21l-6 -77q-68 17 -121 17q-56 0 -89 -26q-47 -49 -47 -149
q0 -91 44 -135.5t113 -44.5q45 0 112 18z" />
    <glyph glyph-name="egrave" unicode="&#xe8;" horiz-adv-x="512" 
d="M467 230h-327q4 -86 44.5 -125.5t115.5 -39.5q73 0 146 22l-5 -71q-37 -14 -78 -20.5t-76 -6.5q-115 0 -178 64.5t-63 188.5q0 76 26.5 136t79 94t125.5 34q94 0 145 -51.5t51 -148.5q0 -48 -6 -76zM184 404q-35 -45 -43 -113h242q-3 142 -110 142q-55 0 -89 -29z
M158 736q45 18 107 20l108 -182h-75z" />
    <glyph glyph-name="eacute" unicode="&#xe9;" horiz-adv-x="512" 
d="M467 230h-327q4 -86 44.5 -125.5t115.5 -39.5q73 0 146 22l-5 -71q-37 -14 -78 -20.5t-76 -6.5q-115 0 -178 64.5t-63 188.5q0 76 26.5 136t79 94t125.5 34q94 0 145 -51.5t51 -148.5q0 -48 -6 -76zM184 404q-35 -45 -43 -113h242q-3 142 -110 142q-55 0 -89 -29z
M285 574h-75l108 184q59 -3 108 -22z" />
    <glyph glyph-name="ecircumflex" unicode="&#xea;" horiz-adv-x="512" 
d="M467 230h-327q4 -86 44.5 -125.5t115.5 -39.5q73 0 146 22l-5 -71q-37 -14 -78 -20.5t-76 -6.5q-115 0 -178 64.5t-63 188.5q0 76 26.5 136t79 94t125.5 34q94 0 145 -51.5t51 -148.5q0 -48 -6 -76zM184 404q-35 -45 -43 -113h242q-3 142 -110 142q-55 0 -89 -29z
M187 574q-40 1 -70 14l128 170h59l127 -170q-30 -13 -69 -14l-80 92h-16z" />
    <glyph glyph-name="edieresis" unicode="&#xeb;" horiz-adv-x="512" 
d="M467 230h-327q4 -86 44.5 -125.5t115.5 -39.5q73 0 146 22l-5 -71q-37 -14 -78 -20.5t-76 -6.5q-115 0 -178 64.5t-63 188.5q0 76 26.5 136t79 94t125.5 34q94 0 145 -51.5t51 -148.5q0 -48 -6 -76zM184 404q-35 -45 -43 -113h242q-3 142 -110 142q-55 0 -89 -29z
M136 571q-9 49 -10 97q33 5 71 5q24 0 36 -1l-7 -101h-90zM325 571q-9 49 -10 97q33 5 71 5q24 0 36 -1l-7 -101h-90z" />
    <glyph glyph-name="igrave" unicode="&#xec;" horiz-adv-x="268" 
d="M194 0h-92v418l-76 4l4 70h164v-492zM19 736q45 18 107 20l108 -182h-75z" />
    <glyph glyph-name="iacute" unicode="&#xed;" horiz-adv-x="268" 
d="M194 0h-92v418l-76 4l4 70h164v-492zM146 574h-75l108 184q59 -3 108 -22z" />
    <glyph glyph-name="icircumflex" unicode="&#xee;" horiz-adv-x="268" 
d="M194 0h-92v418l-76 4l4 70h164v-492zM48 574q-40 1 -70 14l128 170h59l127 -170q-30 -13 -69 -14l-80 92h-16z" />
    <glyph glyph-name="idieresis" unicode="&#xef;" horiz-adv-x="268" 
d="M194 0h-92v418l-76 4l4 70h164v-492zM-3 571q-9 49 -10 97q33 5 71 5q24 0 36 -1l-7 -101h-90zM186 571q-9 49 -10 97q33 5 71 5q24 0 36 -1l-7 -101h-90z" />
    <glyph glyph-name="eth" unicode="&#xf0;" horiz-adv-x="534" 
d="M335 659q75 -63 110.5 -152.5t35.5 -216.5q0 -151 -59 -225t-165 -74q-99 0 -157 62t-58 179q0 85 30.5 144t81 88.5t111.5 29.5q52 0 93 -23l4 2q-28 86 -95 146l-100 -65l-39 37l88 67q-39 27 -102 56l48 44q69 -28 113 -56l73 58q47 -8 85 -35zM379.5 180
q6.5 34 6.5 101q0 65 -7 113q-44 28 -105 28q-25 0 -44 -4.5t-42 -15.5q-50 -45 -50 -154q0 -87 33 -133.5t95 -46.5q52 0 91 37q16 41 22.5 75z" />
    <glyph glyph-name="ntilde" unicode="&#xf1;" horiz-adv-x="557" 
d="M74 0v490l87 11l3 -62q49 32 92 48.5t90 16.5q71 0 106.5 -36.5t35.5 -115.5v-352h-92v334q0 47 -22.5 68.5t-67.5 21.5q-68 0 -139 -45v-379h-93zM311.5 581q-24.5 11 -59.5 31q-16 10 -30.5 17t-21.5 7q-11 0 -24.5 -19t-22.5 -42l-57 17q19 52 43.5 81t60.5 29
q22 0 42.5 -8t52.5 -26q35 -22 71 -35q25 21 40 63l58 -15q-39 -111 -106 -111q-22 0 -46.5 11z" />
    <glyph glyph-name="ograve" unicode="&#xf2;" horiz-adv-x="550" 
d="M147.5 18q-50.5 30 -78 85t-27.5 130q0 83 30 144.5t85.5 94.5t130.5 33q65 0 115 -30t78 -85t28 -129q0 -83 -30 -144.5t-85 -95t-128 -33.5q-68 0 -118.5 30zM381 106q31 55 31 144q0 90 -37 135t-99 45q-34 0 -57 -10t-45 -32q-36 -53 -36 -142q0 -90 36.5 -136
t104.5 -46q64 0 102 42zM165 736q45 18 107 20l108 -182h-75z" />
    <glyph glyph-name="oacute" unicode="&#xf3;" horiz-adv-x="550" 
d="M147.5 18q-50.5 30 -78 85t-27.5 130q0 83 30 144.5t85.5 94.5t130.5 33q65 0 115 -30t78 -85t28 -129q0 -83 -30 -144.5t-85 -95t-128 -33.5q-68 0 -118.5 30zM381 106q31 55 31 144q0 90 -37 135t-99 45q-34 0 -57 -10t-45 -32q-36 -53 -36 -142q0 -90 36.5 -136
t104.5 -46q64 0 102 42zM292 574h-75l108 184q59 -3 108 -22z" />
    <glyph glyph-name="ocircumflex" unicode="&#xf4;" horiz-adv-x="550" 
d="M147.5 18q-50.5 30 -78 85t-27.5 130q0 83 30 144.5t85.5 94.5t130.5 33q65 0 115 -30t78 -85t28 -129q0 -83 -30 -144.5t-85 -95t-128 -33.5q-68 0 -118.5 30zM381 106q31 55 31 144q0 90 -37 135t-99 45q-34 0 -57 -10t-45 -32q-36 -53 -36 -142q0 -90 36.5 -136
t104.5 -46q64 0 102 42zM194 574q-40 1 -70 14l128 170h59l127 -170q-30 -13 -69 -14l-80 92h-16z" />
    <glyph glyph-name="otilde" unicode="&#xf5;" horiz-adv-x="550" 
d="M147.5 18q-50.5 30 -78 85t-27.5 130q0 83 30 144.5t85.5 94.5t130.5 33q65 0 115 -30t78 -85t28 -129q0 -83 -30 -144.5t-85 -95t-128 -33.5q-68 0 -118.5 30zM381 106q31 55 31 144q0 90 -37 135t-99 45q-34 0 -57 -10t-45 -32q-36 -53 -36 -142q0 -90 36.5 -136
t104.5 -46q64 0 102 42zM320.5 581q-24.5 11 -59.5 31q-16 10 -30.5 17t-21.5 7q-11 0 -24.5 -19t-22.5 -42l-57 17q19 52 43.5 81t60.5 29q22 0 42.5 -8t52.5 -26q35 -22 71 -35q25 21 40 63l58 -15q-39 -111 -106 -111q-22 0 -46.5 11z" />
    <glyph glyph-name="odieresis" unicode="&#xf6;" horiz-adv-x="550" 
d="M147.5 18q-50.5 30 -78 85t-27.5 130q0 83 30 144.5t85.5 94.5t130.5 33q65 0 115 -30t78 -85t28 -129q0 -83 -30 -144.5t-85 -95t-128 -33.5q-68 0 -118.5 30zM381 106q31 55 31 144q0 90 -37 135t-99 45q-34 0 -57 -10t-45 -32q-36 -53 -36 -142q0 -90 36.5 -136
t104.5 -46q64 0 102 42zM143 571q-9 49 -10 97q33 5 71 5q24 0 36 -1l-7 -101h-90zM332 571q-9 49 -10 97q33 5 71 5q24 0 36 -1l-7 -101h-90z" />
    <glyph glyph-name="divide" unicode="&#xf7;" horiz-adv-x="447" 
d="M182 418q-10 46 -13 97q18 3 54 3q35 0 53 -3q-3 -48 -12 -97h-82zM410 242h-377l5 72h376zM264 139q11 -60 12 -97q-18 -3 -54 -3q-35 0 -53 3q3 51 13 97h82z" />
    <glyph glyph-name="oslash" unicode="&#xf8;" horiz-adv-x="550" 
d="M426 459q40 -31 61.5 -82t21.5 -116q0 -83 -30 -144.5t-85 -95t-128 -33.5q-41 0 -82 13l-43 -81h-82l62 117q-38 32 -58.5 82t-20.5 114q0 83 30 144.5t85.5 94.5t130.5 33q40 0 75 -12l47 90h81zM166 122l159 300q-24 8 -49 8q-34 0 -57 -10t-45 -32q-36 -53 -36 -142
q0 -77 28 -124zM412 250q0 79 -30 126l-160 -302q24 -10 57 -10q64 0 102 42q31 55 31 144z" />
    <glyph glyph-name="ugrave" unicode="&#xf9;" horiz-adv-x="549" 
d="M105 25q-36 37 -36 116v351h92v-335q0 -48 22.5 -69t69.5 -21q32 0 63 12t66 44v369h93v-492h-80l-7 62q-45 -39 -86 -56.5t-91 -17.5q-70 0 -106 37zM157 736q45 18 107 20l108 -182h-75z" />
    <glyph glyph-name="uacute" unicode="&#xfa;" horiz-adv-x="549" 
d="M105 25q-36 37 -36 116v351h92v-335q0 -48 22.5 -69t69.5 -21q32 0 63 12t66 44v369h93v-492h-80l-7 62q-45 -39 -86 -56.5t-91 -17.5q-70 0 -106 37zM284 574h-75l108 184q59 -3 108 -22z" />
    <glyph glyph-name="ucircumflex" unicode="&#xfb;" horiz-adv-x="549" 
d="M105 25q-36 37 -36 116v351h92v-335q0 -48 22.5 -69t69.5 -21q32 0 63 12t66 44v369h93v-492h-80l-7 62q-45 -39 -86 -56.5t-91 -17.5q-70 0 -106 37zM186 574q-40 1 -70 14l128 170h59l127 -170q-30 -13 -69 -14l-80 92h-16z" />
    <glyph glyph-name="udieresis" unicode="&#xfc;" horiz-adv-x="549" 
d="M105 25q-36 37 -36 116v351h92v-335q0 -48 22.5 -69t69.5 -21q32 0 63 12t66 44v369h93v-492h-80l-7 62q-45 -39 -86 -56.5t-91 -17.5q-70 0 -106 37zM135 571q-9 49 -10 97q33 5 71 5q24 0 36 -1l-7 -101h-90zM324 571q-9 49 -10 97q33 5 71 5q24 0 36 -1l-7 -101h-90z
" />
    <glyph glyph-name="yacute" unicode="&#xfd;" horiz-adv-x="464" 
d="M244 90l117 402h98l-169 -483l-93 -201h-99l97 194v2l-190 488h102l135 -402h2zM244 574h-75l108 184q59 -3 108 -22z" />
    <glyph glyph-name="thorn" unicode="&#xfe;" horiz-adv-x="538" 
d="M74 -201v893l92 12v-251l7 -2q38 29 70.5 41t67.5 12q84 0 135 -60t51 -173q0 -91 -35 -154.5t-93.5 -94.5t-129.5 -31q-35 0 -73 9v-189zM347 87q53 56 53 170q0 83 -27 125.5t-92 42.5q-57 0 -115 -45v-299q41 -16 83 -16q51 0 98 22z" />
    <glyph glyph-name="ydieresis" unicode="&#xff;" horiz-adv-x="464" 
d="M244 90l117 402h98l-169 -483l-93 -201h-99l97 194v2l-190 488h102l135 -402h2zM95 571q-9 49 -10 97q33 5 71 5q24 0 36 -1l-7 -101h-90zM284 571q-9 49 -10 97q33 5 71 5q24 0 36 -1l-7 -101h-90z" />
    <glyph glyph-name="Amacron" unicode="&#x100;" horiz-adv-x="548" 
d="M538 0h-104l-41 136h-243l-43 -136h-98l212 610l112 3zM272 527l-100 -320h199l-97 320h-2zM450 703h-357l5 68h358z" />
    <glyph glyph-name="amacron" unicode="&#x101;" horiz-adv-x="508" 
d="M110 14.5q-34 21.5 -50 54.5t-16 68q0 47 21.5 83.5t58.5 54.5q50 27 163 27q40 0 59 -3v11q0 45 -8.5 69.5t-32 36t-68.5 11.5q-36 0 -79 -7t-81 -19l5 77q88 27 170 27q97 0 142 -42t45 -136v-327h-80l-11 59q-63 -66 -154 -66q-50 0 -84 21.5zM286.5 83.5
q32.5 13.5 58.5 42.5v110l-22 1q-30 2 -47 2q-41 0 -70 -4t-55 -18q-16 -22 -16 -65q0 -38 22.5 -60t63.5 -22q33 0 65.5 13.5zM408 580h-329l5 67h330z" />
    <glyph glyph-name="Abreve" unicode="&#x102;" horiz-adv-x="548" 
d="M538 0h-104l-41 136h-243l-43 -136h-98l212 610l112 3zM272 527l-100 -320h199l-97 320h-2zM437 828q-6 -68 -50.5 -105t-112.5 -37q-66 0 -111 37t-52 105q29 8 72 6q19 -74 91 -74q75 0 92 74q44 2 71 -6z" />
    <glyph glyph-name="abreve" unicode="&#x103;" horiz-adv-x="508" 
d="M110 14.5q-34 21.5 -50 54.5t-16 68q0 47 21.5 83.5t58.5 54.5q50 27 163 27q40 0 59 -3v11q0 45 -8.5 69.5t-32 36t-68.5 11.5q-36 0 -79 -7t-81 -19l5 77q88 27 170 27q97 0 142 -42t45 -136v-327h-80l-11 59q-63 -66 -154 -66q-50 0 -84 21.5zM286.5 83.5
q32.5 13.5 58.5 42.5v110l-22 1q-30 2 -47 2q-41 0 -70 -4t-55 -18q-16 -22 -16 -65q0 -38 22.5 -60t63.5 -22q33 0 65.5 13.5zM403 712q-13 -72 -54.5 -110.5t-102.5 -38.5q-60 0 -101.5 38.5t-55.5 110.5q34 9 64 9q27 -83 93 -83q34 0 57 20t36 63q32 0 64 -9z" />
    <glyph glyph-name="Aogonek" unicode="&#x104;" horiz-adv-x="548" 
d="M538 0h-104l-41 136h-243l-43 -136h-98l212 610l112 3zM272 527l-100 -320h199l-97 320h-2zM415 -191q-25 20 -25 55q0 29 19 61.5t56 74.5h73q-37 -40 -54 -68t-17 -49q0 -31 32 -31q20 0 41 9l-5 -57q-24 -15 -56 -15q-39 0 -64 20z" />
    <glyph glyph-name="aogonek" unicode="&#x105;" horiz-adv-x="508" 
d="M439 0h-12q-37 -40 -54 -68t-17 -49q0 -31 32 -31q20 0 41 9l-5 -57q-24 -15 -56 -15q-39 0 -64 20t-25 55q0 29 19 61.5t56 74.5h5l-11 59q-63 -66 -154 -66q-50 0 -84 21.5t-50 54.5t-16 68q0 47 21.5 83.5t58.5 54.5q50 27 163 27q40 0 59 -3v11q0 45 -8.5 69.5
t-32 36t-68.5 11.5q-36 0 -79 -7t-81 -19l5 77q88 27 170 27q97 0 142 -42t45 -136v-327zM345 236l-22 1q-30 2 -47 2q-41 0 -70 -4t-55 -18q-16 -22 -16 -65q0 -38 22.5 -60t63.5 -22q33 0 65.5 13.5t58.5 42.5v110z" />
    <glyph glyph-name="Cacute" unicode="&#x106;" horiz-adv-x="505" 
d="M114 75q-74 84 -74 226q0 96 34.5 168t102.5 112t165 40q68 0 133 -20l-9 -79q-61 17 -126 17q-43 0 -74.5 -9t-61.5 -30q-29 -34 -45.5 -77.5t-16.5 -108.5q0 -112 53 -175.5t160 -63.5q58 0 118 16l-4 -80q-80 -20 -144 -20q-137 0 -211 84zM352 837q24 2 52 2
q55 0 79 -5l-141 -139h-89z" />
    <glyph glyph-name="cacute" unicode="&#x107;" horiz-adv-x="439" 
d="M151.5 17q-50.5 28 -80.5 85t-30 139q0 81 30 141t85 92t127 32q71 0 117 -21l-6 -77q-68 17 -121 17q-56 0 -89 -26q-47 -49 -47 -149q0 -91 44 -135.5t113 -44.5q45 0 112 18l-3 -78q-51 -21 -139 -21q-62 0 -112.5 28zM246 574h-75l108 184q59 -3 108 -22z" />
    <glyph glyph-name="Cdotaccent" unicode="&#x10a;" horiz-adv-x="505" 
d="M114 75q-74 84 -74 226q0 96 34.5 168t102.5 112t165 40q68 0 133 -20l-9 -79q-61 17 -126 17q-43 0 -74.5 -9t-61.5 -30q-29 -34 -45.5 -77.5t-16.5 -108.5q0 -112 53 -175.5t160 -63.5q58 0 118 16l-4 -80q-80 -20 -144 -20q-137 0 -211 84zM278 689q-9 49 -10 97
q33 5 71 5q24 0 36 -1l-7 -101h-90z" />
    <glyph glyph-name="cdotaccent" unicode="&#x10b;" horiz-adv-x="439" 
d="M151.5 17q-50.5 28 -80.5 85t-30 139q0 81 30 141t85 92t127 32q71 0 117 -21l-6 -77q-68 17 -121 17q-56 0 -89 -26q-47 -49 -47 -149q0 -91 44 -135.5t113 -44.5q45 0 112 18l-3 -78q-51 -21 -139 -21q-62 0 -112.5 28zM193 571q-9 49 -10 97q33 5 71 5q24 0 36 -1
l-7 -101h-90z" />
    <glyph glyph-name="Ccaron" unicode="&#x10c;" horiz-adv-x="505" 
d="M114 75q-74 84 -74 226q0 96 34.5 168t102.5 112t165 40q68 0 133 -20l-9 -79q-61 17 -126 17q-43 0 -74.5 -9t-61.5 -30q-29 -34 -45.5 -77.5t-16.5 -108.5q0 -112 53 -175.5t160 -63.5q58 0 118 16l-4 -80q-80 -20 -144 -20q-137 0 -211 84zM141 821q38 5 92 3l79 -66
h16l80 66q57 2 92 -3l-115 -126h-126z" />
    <glyph glyph-name="ccaron" unicode="&#x10d;" horiz-adv-x="439" 
d="M151.5 17q-50.5 28 -80.5 85t-30 139q0 81 30 141t85 92t127 32q71 0 117 -21l-6 -77q-68 17 -121 17q-56 0 -89 -26q-47 -49 -47 -149q0 -91 44 -135.5t113 -44.5q45 0 112 18l-3 -78q-51 -21 -139 -21q-62 0 -112.5 28zM323 758q36 -1 69 -14l-127 -170h-59l-128 170
q37 13 70 14l79 -92h16z" />
    <glyph glyph-name="Dcaron" unicode="&#x10e;" horiz-adv-x="613" 
d="M84 1v609q92 9 194 9q124 0 209.5 -64.5t85.5 -225.5q0 -165 -81 -250t-231 -85q-69 0 -177 7zM362 87q56 33 82.5 88.5t26.5 143.5q0 119 -52 170t-152 51q-27 0 -87 -2v-459q48 -3 91 -3q54 0 91 11zM101 822q38 5 92 3l79 -66h16l80 66q57 2 92 -3l-115 -126h-126z
" />
    <glyph glyph-name="dcaron" unicode="&#x10f;" horiz-adv-x="538" 
d="M93 53.5q-51 61.5 -51 176.5q0 89 35 150t93 91t128 30q49 0 74 -5v196l92 12v-704h-77l-7 59q-66 -67 -149 -67q-87 0 -138 61.5zM372 124v293q-36 12 -83 12q-53 0 -98 -22q-26 -24 -39.5 -65.5t-13.5 -95.5q0 -176 123 -176q61 0 111 54zM522 706l87 12l-22 -216
l-33 -1l-33 1z" />
    <glyph glyph-name="Dcroat" unicode="&#x110;" horiz-adv-x="613" 
d="M487.5 554.5q85.5 -64.5 85.5 -225.5q0 -165 -81 -250t-231 -85q-69 0 -177 7v279h-75v65h75v265q92 9 194 9q124 0 209.5 -64.5zM444.5 175.5q26.5 55.5 26.5 143.5q0 119 -52 170t-152 51q-27 0 -87 -2v-193h86l-5 -65h-81v-201q48 -3 91 -3q54 0 91 11
q56 33 82.5 88.5z" />
    <glyph glyph-name="dcroat" unicode="&#x111;" horiz-adv-x="538" 
d="M548 621l-5 -65h-79v-556h-77l-7 59q-66 -67 -149 -67q-87 0 -138 61.5t-51 176.5q0 89 35 150t93 91t128 30q49 0 74 -5v60h-81v65h81v71l92 12v-83h84zM372 417q-36 12 -83 12q-53 0 -98 -22q-26 -24 -39.5 -65.5t-13.5 -95.5q0 -176 123 -176q61 0 111 54v293z" />
    <glyph glyph-name="Emacron" unicode="&#x112;" horiz-adv-x="498" 
d="M180 278v-202h265l-6 -76h-355v610h355l5 -72h-264v-187h232l-5 -73h-227zM437 703h-357l5 68h358z" />
    <glyph glyph-name="emacron" unicode="&#x113;" horiz-adv-x="512" 
d="M467 230h-327q4 -86 44.5 -125.5t115.5 -39.5q73 0 146 22l-5 -71q-37 -14 -78 -20.5t-76 -6.5q-115 0 -178 64.5t-63 188.5q0 76 26.5 136t79 94t125.5 34q94 0 145 -51.5t51 -148.5q0 -48 -6 -76zM184 404q-35 -45 -43 -113h242q-3 142 -110 142q-55 0 -89 -29z
M436 580h-329l5 67h330z" />
    <glyph glyph-name="Edotaccent" unicode="&#x116;" horiz-adv-x="498" 
d="M180 278v-202h265l-6 -76h-355v610h355l5 -72h-264v-187h232l-5 -73h-227zM219 689q-9 49 -10 97q33 5 71 5q24 0 36 -1l-7 -101h-90z" />
    <glyph glyph-name="edotaccent" unicode="&#x117;" horiz-adv-x="512" 
d="M467 230h-327q4 -86 44.5 -125.5t115.5 -39.5q73 0 146 22l-5 -71q-37 -14 -78 -20.5t-76 -6.5q-115 0 -178 64.5t-63 188.5q0 76 26.5 136t79 94t125.5 34q94 0 145 -51.5t51 -148.5q0 -48 -6 -76zM184 404q-35 -45 -43 -113h242q-3 142 -110 142q-55 0 -89 -29z
M232 571q-9 49 -10 97q33 5 71 5q24 0 36 -1l-7 -101h-90z" />
    <glyph glyph-name="Eogonek" unicode="&#x118;" horiz-adv-x="498" 
d="M180 278v-202h265l-6 -76h-355v610h355l5 -72h-264v-187h232l-5 -73h-227zM316 -191q-25 20 -25 55q0 29 19 61.5t56 74.5h73q-37 -40 -54 -68t-17 -49q0 -31 32 -31q20 0 41 9l-5 -57q-24 -15 -56 -15q-39 0 -64 20z" />
    <glyph glyph-name="eogonek" unicode="&#x119;" horiz-adv-x="512" 
d="M467 230h-327q4 -86 44.5 -125.5t115.5 -39.5q73 0 146 22l-5 -71h5q-37 -40 -54 -68t-17 -49q0 -31 32 -31q20 0 41 9l-5 -57q-24 -15 -56 -15q-39 0 -64 20t-25 55q0 25 14.5 52.5t41.5 61.5q-40 -5 -67 -5q-115 0 -178 64.5t-63 188.5q0 76 26.5 136t79 94t125.5 34
q94 0 145 -51.5t51 -148.5q0 -48 -6 -76zM184 404q-35 -45 -43 -113h242q-3 142 -110 142q-55 0 -89 -29z" />
    <glyph glyph-name="Ecaron" unicode="&#x11a;" horiz-adv-x="498" 
d="M180 278v-202h265l-6 -76h-355v610h355l5 -72h-264v-187h232l-5 -73h-227zM82 821q38 5 92 3l79 -66h16l80 66q57 2 92 -3l-115 -126h-126z" />
    <glyph glyph-name="ecaron" unicode="&#x11b;" horiz-adv-x="512" 
d="M467 230h-327q4 -86 44.5 -125.5t115.5 -39.5q73 0 146 22l-5 -71q-37 -14 -78 -20.5t-76 -6.5q-115 0 -178 64.5t-63 188.5q0 76 26.5 136t79 94t125.5 34q94 0 145 -51.5t51 -148.5q0 -48 -6 -76zM184 404q-35 -45 -43 -113h242q-3 142 -110 142q-55 0 -89 -29z
M362 758q36 -1 69 -14l-127 -170h-59l-128 170q37 13 70 14l79 -92h16z" />
    <glyph glyph-name="Gbreve" unicode="&#x11e;" horiz-adv-x="591" 
d="M114.5 73.5q-74.5 82.5 -74.5 225.5q0 102 39 174.5t111 110t168 37.5q76 0 161 -25l-8 -77q-78 22 -163 22q-78 0 -132 -27q-34 -34 -54 -82.5t-20 -122.5q0 -113 49 -175.5t144 -62.5q58 0 115 15v161h-131l2 72h219v-191q0 -48 -5 -82q-84 -55 -213 -55
q-133 0 -207.5 82.5zM495 828q-6 -68 -50.5 -105t-112.5 -37q-66 0 -111 37t-52 105q29 8 72 6q19 -74 91 -74q75 0 92 74q44 2 71 -6z" />
    <glyph glyph-name="gbreve" unicode="&#x11f;" horiz-adv-x="533" 
d="M84 -168l8 79q87 -30 153 -30q42 0 70.5 11t46.5 39q6 25 8 55t2 86q-33 -30 -66.5 -43.5t-74.5 -13.5q-88 0 -138.5 57.5t-50.5 165.5q0 86 33 146.5t90.5 91t128.5 30.5q87 0 170 -33v-402q0 -138 -51 -206t-175 -68q-81 0 -154 35zM372 142v276q-43 12 -88 12
q-30 0 -54.5 -6t-50.5 -21q-19 -22 -29.5 -64t-10.5 -90q0 -159 117 -159q63 0 116 52zM450 712q-13 -72 -54.5 -110.5t-102.5 -38.5q-60 0 -101.5 38.5t-55.5 110.5q34 9 64 9q27 -83 93 -83q34 0 57 20t36 63q32 0 64 -9z" />
    <glyph glyph-name="Gdotaccent" unicode="&#x120;" horiz-adv-x="591" 
d="M114.5 73.5q-74.5 82.5 -74.5 225.5q0 102 39 174.5t111 110t168 37.5q76 0 161 -25l-8 -77q-78 22 -163 22q-78 0 -132 -27q-34 -34 -54 -82.5t-20 -122.5q0 -113 49 -175.5t144 -62.5q58 0 115 15v161h-131l2 72h219v-191q0 -48 -5 -82q-84 -55 -213 -55
q-133 0 -207.5 82.5zM290 689q-9 49 -10 97q33 5 71 5q24 0 36 -1l-7 -101h-90z" />
    <glyph glyph-name="gdotaccent" unicode="&#x121;" horiz-adv-x="533" 
d="M84 -168l8 79q87 -30 153 -30q42 0 70.5 11t46.5 39q6 25 8 55t2 86q-33 -30 -66.5 -43.5t-74.5 -13.5q-88 0 -138.5 57.5t-50.5 165.5q0 86 33 146.5t90.5 91t128.5 30.5q87 0 170 -33v-402q0 -138 -51 -206t-175 -68q-81 0 -154 35zM372 142v276q-43 12 -88 12
q-30 0 -54.5 -6t-50.5 -21q-19 -22 -29.5 -64t-10.5 -90q0 -159 117 -159q63 0 116 52zM251 571q-9 49 -10 97q33 5 71 5q24 0 36 -1l-7 -101h-90z" />
    <glyph glyph-name="uni0122" unicode="&#x122;" horiz-adv-x="591" 
d="M114.5 73.5q-74.5 82.5 -74.5 225.5q0 102 39 174.5t111 110t168 37.5q76 0 161 -25l-8 -77q-78 22 -163 22q-78 0 -132 -27q-34 -34 -54 -82.5t-20 -122.5q0 -113 49 -175.5t144 -62.5q58 0 115 15v161h-131l2 72h219v-191q0 -48 -5 -82q-84 -55 -213 -55
q-133 0 -207.5 82.5zM306 -214q-29 0 -37 2l22 79v80q8 1 45 1t46 -1v-44q0 -34 -9 -60t-29 -55q-10 -2 -38 -2z" />
    <glyph glyph-name="uni0123" unicode="&#x123;" horiz-adv-x="533" 
d="M84 -168l8 79q87 -30 153 -30q42 0 70.5 11t46.5 39q6 25 8 55t2 86q-33 -30 -66.5 -43.5t-74.5 -13.5q-88 0 -138.5 57.5t-50.5 165.5q0 86 33 146.5t90.5 91t128.5 30.5q87 0 170 -33v-402q0 -138 -51 -206t-175 -68q-81 0 -154 35zM372 142v276q-43 12 -88 12
q-30 0 -54.5 -6t-50.5 -21q-19 -22 -29.5 -64t-10.5 -90q0 -159 117 -159q63 0 116 52zM331 739q27 0 37 -2l-33 -77v-85q-18 -2 -44 -2q-27 0 -43 2v45q0 33 11.5 59t34.5 58q10 2 37 2z" />
    <glyph glyph-name="Hbar" unicode="&#x126;" horiz-adv-x="656" 
d="M572 503h49l-5 -59h-44v-444h-96v273h-296v-273h-96v444h-49l6 59h43v107h96v-107h296v107h96v-107zM180 352h296v92h-296v-92z" />
    <glyph glyph-name="hbar" unicode="&#x127;" horiz-adv-x="557" 
d="M453 467.5q35 -36.5 35 -115.5v-352h-92v334q0 47 -22.5 68.5t-67.5 21.5q-68 0 -139 -41v-383h-93v549h-79v65h79v78l93 12v-90h85l-5 -65h-81v-105q47 30 90 45t91 15q71 0 106 -36.5z" />
    <glyph glyph-name="Imacron" unicode="&#x12a;" horiz-adv-x="325" 
d="M294 542l-83 -3h-1v-467h1l83 -4v-68h-263v68l83 4v467l-83 3v68h263v-68zM325 698h-329l5 67h330z" />
    <glyph glyph-name="imacron" unicode="&#x12b;" horiz-adv-x="268" 
d="M194 0h-92v418l-76 4l4 70h164v-492zM297 580h-329l5 67h330z" />
    <glyph glyph-name="Iogonek" unicode="&#x12e;" horiz-adv-x="325" 
d="M294 542l-83 -3h-1v-467h1l83 -4v-68h-263v68l83 4v467l-83 3v68h263v-68zM171 -191q-25 20 -25 55q0 29 19 61.5t56 74.5h73q-37 -40 -54 -68t-17 -49q0 -31 32 -31q20 0 41 9l-5 -57q-24 -15 -56 -15q-39 0 -64 20z" />
    <glyph glyph-name="iogonek" unicode="&#x12f;" horiz-adv-x="268" 
d="M194 0h-92v418l-76 4l4 70h164v-492zM93 571q-9 49 -10 97q33 5 71 5q24 0 36 -1l-7 -101h-90zM71 -191q-25 20 -25 55q0 29 19 61.5t56 74.5h73q-37 -40 -54 -68t-17 -49q0 -31 32 -31q20 0 41 9l-5 -57q-24 -15 -56 -15q-39 0 -64 20z" />
    <glyph glyph-name="Idotaccent" unicode="&#x130;" horiz-adv-x="325" 
d="M294 542l-83 -3h-1v-467h1l83 -4v-68h-263v68l83 4v467l-83 3v68h263v-68zM121 689q-9 49 -10 97q33 5 71 5q24 0 36 -1l-7 -101h-90z" />
    <glyph glyph-name="dotlessi" unicode="&#x131;" horiz-adv-x="268" 
d="M194 0h-92v418l-76 4l4 70h164v-492z" />
    <glyph glyph-name="uni0136" unicode="&#x136;" horiz-adv-x="572" 
d="M512 79l53 -11l-6 -69q-21 -5 -56 -5q-27 0 -46 7t-30 25l-157 248h-2l-88 -93v-181h-96v610h96v-329h2l258 329h109l-218 -276v-2zM286 -214q-29 0 -37 2l22 79v80q8 1 45 1t46 -1v-44q0 -34 -9 -60t-29 -55q-10 -2 -38 -2z" />
    <glyph glyph-name="uni0137" unicode="&#x137;" horiz-adv-x="505" 
d="M448 73l53 -7l-6 -68q-26 -6 -62 -6q-48 0 -66 31l-134 207h-2l-64 -54v-176h-93v692l93 12v-442h2l215 236l100 -6l-188 -209v-2zM228 -213q-27 0 -35 2l32 72v83q8 1 43 1t44 -1v-45q0 -32 -11.5 -56.5t-35.5 -53.5q-12 -2 -37 -2z" />
    <glyph glyph-name="Lacute" unicode="&#x139;" horiz-adv-x="459" 
d="M180 610v-532h256l-7 -78h-345v610h96zM169 837q24 2 52 2q55 0 79 -5l-141 -139h-89z" />
    <glyph glyph-name="lacute" unicode="&#x13a;" horiz-adv-x="266" 
d="M243 2q-37 -8 -79 -8q-26 0 -44.5 4t-31.5 16q-12 12 -15.5 32.5t-3.5 54.5v591l92 12v-584q0 -15 2 -43l85 -6zM256 599h-75l108 184q59 -3 108 -22z" />
    <glyph glyph-name="uni013B" unicode="&#x13b;" horiz-adv-x="459" 
d="M180 610v-532h256l-7 -78h-345v610h96zM230 -214q-29 0 -37 2l22 79v80q8 1 45 1t46 -1v-44q0 -34 -9 -60t-29 -55q-10 -2 -38 -2z" />
    <glyph glyph-name="uni013C" unicode="&#x13c;" horiz-adv-x="266" 
d="M243 2q-37 -8 -79 -8q-26 0 -44.5 4t-31.5 16q-12 12 -15.5 32.5t-3.5 54.5v591l92 12v-584q0 -15 2 -43l85 -6zM104 -215q-27 0 -35 2l32 72v83q8 1 43 1t44 -1v-45q0 -32 -11.5 -56.5t-35.5 -53.5q-12 -2 -37 -2z" />
    <glyph glyph-name="Lcaron" unicode="&#x13d;" horiz-adv-x="459" 
d="M180 610v-532h256l-7 -78h-345v610h96zM279 610l87 12l-22 -216l-33 -1l-33 1z" />
    <glyph glyph-name="lcaron" unicode="&#x13e;" horiz-adv-x="266" 
d="M243 2q-37 -8 -79 -8q-26 0 -44.5 4t-31.5 16q-12 12 -15.5 32.5t-3.5 54.5v591l92 12v-584q0 -15 2 -43l85 -6zM232 710l87 12l-22 -216l-33 -1l-33 1z" />
    <glyph glyph-name="Lslash" unicode="&#x141;" horiz-adv-x="459" 
d="M180 308v-230h256l-7 -78h-345v260l-46 -23v80l46 22v271h96v-224l123 60l-6 -80z" />
    <glyph glyph-name="lslash" unicode="&#x142;" horiz-adv-x="266" 
d="M253 487l-92 -46v-321q0 -15 2 -43l85 -6l-5 -69q-37 -8 -79 -8q-26 0 -44.5 4t-31.5 16q-12 12 -15.5 32.5t-3.5 54.5v294l-75 -37v80l75 37v217l92 12v-185l98 48z" />
    <glyph glyph-name="Nacute" unicode="&#x143;" horiz-adv-x="668" 
d="M168 0h-84v610h98l319 -472h2l-4 472h85v-610h-91l-325 479h-2zM366 837q24 2 52 2q55 0 79 -5l-141 -139h-89z" />
    <glyph glyph-name="nacute" unicode="&#x144;" horiz-adv-x="557" 
d="M74 0v490l87 11l3 -62q49 32 92 48.5t90 16.5q71 0 106.5 -36.5t35.5 -115.5v-352h-92v334q0 47 -22.5 68.5t-67.5 21.5q-68 0 -139 -45v-379h-93zM283 574h-75l108 184q59 -3 108 -22z" />
    <glyph glyph-name="uni0145" unicode="&#x145;" horiz-adv-x="668" 
d="M168 0h-84v610h98l319 -472h2l-4 472h85v-610h-91l-325 479h-2zM313 -214q-29 0 -37 2l22 79v80q8 1 45 1t46 -1v-44q0 -34 -9 -60t-29 -55q-10 -2 -38 -2z" />
    <glyph glyph-name="uni0146" unicode="&#x146;" horiz-adv-x="557" 
d="M74 0v490l87 11l3 -62q49 32 92 48.5t90 16.5q71 0 106.5 -36.5t35.5 -115.5v-352h-92v334q0 47 -22.5 68.5t-67.5 21.5q-68 0 -139 -45v-379h-93zM247 -214q-27 0 -35 2l32 72v83q8 1 43 1t44 -1v-45q0 -32 -11.5 -56.5t-35.5 -53.5q-12 -2 -37 -2z" />
    <glyph glyph-name="Ncaron" unicode="&#x147;" horiz-adv-x="668" 
d="M168 0h-84v610h98l319 -472h2l-4 472h85v-610h-91l-325 479h-2zM155 821q38 5 92 3l79 -66h16l80 66q57 2 92 -3l-115 -126h-126z" />
    <glyph glyph-name="ncaron" unicode="&#x148;" horiz-adv-x="557" 
d="M74 0v490l87 11l3 -62q49 32 92 48.5t90 16.5q71 0 106.5 -36.5t35.5 -115.5v-352h-92v334q0 47 -22.5 68.5t-67.5 21.5q-68 0 -139 -45v-379h-93zM360 758q36 -1 69 -14l-127 -170h-59l-128 170q37 13 70 14l79 -92h16z" />
    <glyph glyph-name="Eng" unicode="&#x14a;" horiz-adv-x="668" 
d="M499 610h85v-610q-2 -104 -45.5 -150.5t-140.5 -46.5q-52 0 -87 14l6 75q44 -12 89 -12q48 0 75 20q17 20 17 98v6l-324 468h-8l2 -472h-84v610h98l313 -453h8z" />
    <glyph glyph-name="eng" unicode="&#x14b;" horiz-adv-x="557" 
d="M452.5 467.5q35.5 -36.5 35.5 -115.5v-370q0 -92 -38.5 -137.5t-109.5 -45.5q-36 0 -63 7v78q29 -4 52 -4q37 0 57 12q10 13 10 76v366q0 47 -22.5 68.5t-67.5 21.5q-68 0 -139 -45v-379h-93v490l87 11l3 -62q49 32 92 48.5t90 16.5q71 0 106.5 -36.5z" />
    <glyph glyph-name="Omacron" unicode="&#x14c;" horiz-adv-x="630" 
d="M167.5 27.5q-61.5 39.5 -94.5 110.5t-33 162q0 97 35.5 169.5t100 111.5t149.5 39q79 0 139.5 -38.5t93 -109t32.5 -161.5q0 -96 -35 -169.5t-98 -113.5t-146 -40q-82 0 -143.5 39.5zM384 77q28 9 52 31q27 37 39.5 82.5t12.5 106.5q0 116 -47 179t-125 63
q-37 0 -62.5 -7t-52.5 -26q-59 -75 -59 -195q0 -114 48.5 -178.5t129.5 -64.5q36 0 64 9zM491 703h-357l5 68h358z" />
    <glyph glyph-name="omacron" unicode="&#x14d;" horiz-adv-x="550" 
d="M147.5 18q-50.5 30 -78 85t-27.5 130q0 83 30 144.5t85.5 94.5t130.5 33q65 0 115 -30t78 -85t28 -129q0 -83 -30 -144.5t-85 -95t-128 -33.5q-68 0 -118.5 30zM381 106q31 55 31 144q0 90 -37 135t-99 45q-34 0 -57 -10t-45 -32q-36 -53 -36 -142q0 -90 36.5 -136
t104.5 -46q64 0 102 42zM443 580h-329l5 67h330z" />
    <glyph glyph-name="Ohungarumlaut" unicode="&#x150;" horiz-adv-x="630" 
d="M167.5 27.5q-61.5 39.5 -94.5 110.5t-33 162q0 97 35.5 169.5t100 111.5t149.5 39q79 0 139.5 -38.5t93 -109t32.5 -161.5q0 -96 -35 -169.5t-98 -113.5t-146 -40q-82 0 -143.5 39.5zM384 77q28 9 52 31q27 37 39.5 82.5t12.5 106.5q0 116 -47 179t-125 63
q-37 0 -62.5 -7t-52.5 -26q-59 -75 -59 -195q0 -114 48.5 -178.5t129.5 -64.5q36 0 64 9zM246 828q61 3 123 -8l-131 -125h-100zM485 828q59 3 122 -8l-131 -125h-115z" />
    <glyph glyph-name="ohungarumlaut" unicode="&#x151;" horiz-adv-x="550" 
d="M147.5 18q-50.5 30 -78 85t-27.5 130q0 83 30 144.5t85.5 94.5t130.5 33q65 0 115 -30t78 -85t28 -129q0 -83 -30 -144.5t-85 -95t-128 -33.5q-68 0 -118.5 30zM381 106q31 55 31 144q0 90 -37 135t-99 45q-34 0 -57 -10t-45 -32q-36 -53 -36 -142q0 -90 36.5 -136
t104.5 -46q64 0 102 42zM219 574h-75l109 184q55 -3 103 -22zM392 574h-75l108 184q57 -3 103 -22z" />
    <glyph glyph-name="OE" unicode="&#x152;" horiz-adv-x="809" 
d="M500 76h256l-6 -76h-330q-54 -13 -112 -13q-81 0 -141.5 41t-93.5 112.5t-33 160.5q0 97 37 169.5t103.5 111.5t153.5 39q49 0 96 -11h320l5 -74h-255v-186h222v-73h-222v-201zM190 133.5q48 -66.5 128 -66.5q59 0 94 10v452q-42 13 -89 13q-39 0 -69 -8.5t-58 -28.5
q-54 -73 -54 -193q0 -112 48 -178.5z" />
    <glyph glyph-name="oe" unicode="&#x153;" horiz-adv-x="885" 
d="M840 231h-332q5 -87 49 -126.5t126 -39.5q66 0 136 22l-4 -71q-72 -27 -152 -27q-70 0 -120.5 24t-81.5 77h-8q-29 -50 -77 -75.5t-110 -25.5q-65 0 -115.5 29.5t-79.5 85t-29 129.5q0 83 30 144.5t85.5 95t130.5 33.5q53 0 100 -26t72 -70h8q23 45 70.5 70.5t111.5 25.5
q89 0 142.5 -53t53.5 -154q0 -42 -6 -68zM553 404q-37 -43 -44 -112h247q-2 71 -30.5 105.5t-84.5 34.5t-88 -28zM414 251q0 89 -38 134t-100 45q-35 0 -57.5 -9.5t-44.5 -32.5q-36 -53 -36 -141q0 -90 36.5 -136t104.5 -46q63 0 102 41q33 58 33 145z" />
    <glyph glyph-name="Racute" unicode="&#x154;" horiz-adv-x="554" 
d="M446.5 3.5q-17.5 8.5 -30.5 29.5l-118 198l-118 -2v-229h-96v610q76 5 184 5q104 0 158.5 -36.5t54.5 -126.5q0 -123 -103 -193v-2l126 -178l56 -11l-6 -68q-26 -5 -61 -5q-29 0 -46.5 8.5zM232 300q55 0 91 5q27 22 42.5 56.5t15.5 74.5q0 54 -28.5 79t-92.5 25
q-43 0 -80 -2v-238h52zM308 837q24 2 52 2q55 0 79 -5l-141 -139h-89z" />
    <glyph glyph-name="racute" unicode="&#x155;" horiz-adv-x="352" 
d="M74 0v490l88 11l2 -70q34 37 64.5 54t62.5 17q26 0 52 -10l-7 -85q-27 7 -53 7q-32 0 -59.5 -10t-56.5 -35v-369h-93zM222 574h-75l108 184q59 -3 108 -22z" />
    <glyph glyph-name="uni0156" unicode="&#x156;" horiz-adv-x="554" 
d="M446.5 3.5q-17.5 8.5 -30.5 29.5l-118 198l-118 -2v-229h-96v610q76 5 184 5q104 0 158.5 -36.5t54.5 -126.5q0 -123 -103 -193v-2l126 -178l56 -11l-6 -68q-26 -5 -61 -5q-29 0 -46.5 8.5zM232 300q55 0 91 5q27 22 42.5 56.5t15.5 74.5q0 54 -28.5 79t-92.5 25
q-43 0 -80 -2v-238h52zM277 -214q-29 0 -37 2l22 79v80q8 1 45 1t46 -1v-44q0 -34 -9 -60t-29 -55q-10 -2 -38 -2z" />
    <glyph glyph-name="uni0157" unicode="&#x157;" horiz-adv-x="352" 
d="M74 0v490l88 11l2 -70q34 37 64.5 54t62.5 17q26 0 52 -10l-7 -85q-27 7 -53 7q-32 0 -59.5 -10t-56.5 -35v-369h-93zM80 -214q-27 0 -35 2l32 72v83q8 1 43 1t44 -1v-45q0 -32 -11.5 -56.5t-35.5 -53.5q-12 -2 -37 -2z" />
    <glyph glyph-name="Rcaron" unicode="&#x158;" horiz-adv-x="554" 
d="M446.5 3.5q-17.5 8.5 -30.5 29.5l-118 198l-118 -2v-229h-96v610q76 5 184 5q104 0 158.5 -36.5t54.5 -126.5q0 -123 -103 -193v-2l126 -178l56 -11l-6 -68q-26 -5 -61 -5q-29 0 -46.5 8.5zM232 300q55 0 91 5q27 22 42.5 56.5t15.5 74.5q0 54 -28.5 79t-92.5 25
q-43 0 -80 -2v-238h52zM97 821q38 5 92 3l79 -66h16l80 66q57 2 92 -3l-115 -126h-126z" />
    <glyph glyph-name="rcaron" unicode="&#x159;" horiz-adv-x="352" 
d="M74 0v490l88 11l2 -70q34 37 64.5 54t62.5 17q26 0 52 -10l-7 -85q-27 7 -53 7q-32 0 -59.5 -10t-56.5 -35v-369h-93zM299 758q36 -1 69 -14l-127 -170h-59l-128 170q37 13 70 14l79 -92h16z" />
    <glyph glyph-name="Sacute" unicode="&#x15a;" horiz-adv-x="489" 
d="M55 23l10 82q48 -19 93.5 -27.5t78.5 -8.5q60 0 92 27q21 23 21 53q0 26 -17 47t-41.5 37t-69.5 40q-55 29 -88.5 51.5t-57.5 56.5t-24 79q0 75 63.5 118.5t166.5 43.5q58 0 140 -21l-14 -83q-74 26 -138 26q-39 0 -70.5 -8t-46.5 -21q-12 -18 -12 -39q0 -35 30.5 -59.5
t94.5 -57.5q55 -29 89.5 -51.5t59 -57.5t24.5 -81t-24 -87t-74 -67t-123 -26q-79 0 -163 34zM279 837q24 2 52 2q55 0 79 -5l-141 -139h-89z" />
    <glyph glyph-name="sacute" unicode="&#x15b;" horiz-adv-x="417" 
d="M40 19l5 75q78 -31 145 -31q22 0 43.5 4t35.5 12q18 20 18 43q0 29 -25 48.5t-80 48.5q-45 22 -74 41t-49 46.5t-20 64.5q0 62 54.5 98.5t139.5 36.5q62 0 121 -18l-5 -74q-56 20 -120 20q-27 0 -50.5 -4t-35.5 -11q-19 -14 -19 -34q0 -23 23 -40t74 -42q49 -25 80.5 -45
t54 -50.5t22.5 -71.5q0 -40 -23 -73t-68 -53t-109 -20q-72 0 -138 29zM220 574h-75l108 184q59 -3 108 -22z" />
    <glyph glyph-name="Scedilla" unicode="&#x15e;" horiz-adv-x="489" 
d="M55 23l10 82q48 -19 93.5 -27.5t78.5 -8.5q60 0 92 27q21 23 21 53q0 26 -17 47t-41.5 37t-69.5 40q-55 29 -88.5 51.5t-57.5 56.5t-24 79q0 75 63.5 118.5t166.5 43.5q58 0 140 -21l-14 -83q-74 26 -138 26q-39 0 -70.5 -8t-46.5 -21q-12 -18 -12 -39q0 -35 30.5 -59.5
t94.5 -57.5q55 -29 89.5 -51.5t59 -57.5t24.5 -81t-24 -87t-74 -67t-123 -26q-79 0 -163 34zM238 -214q-29 0 -37 2l22 79v80q8 1 45 1t46 -1v-44q0 -34 -9 -60t-29 -55q-10 -2 -38 -2z" />
    <glyph glyph-name="scedilla" unicode="&#x15f;" horiz-adv-x="417" 
d="M40 19l5 75q78 -31 145 -31q22 0 43.5 4t35.5 12q18 20 18 43q0 29 -25 48.5t-80 48.5q-45 22 -74 41t-49 46.5t-20 64.5q0 62 54.5 98.5t139.5 36.5q62 0 121 -18l-5 -74q-56 20 -120 20q-27 0 -50.5 -4t-35.5 -11q-19 -14 -19 -34q0 -23 23 -40t74 -42q49 -25 80.5 -45
t54 -50.5t22.5 -71.5q0 -40 -23 -73t-68 -53t-109 -20q-72 0 -138 29zM166 -214q-27 0 -35 2l32 72v83q8 1 43 1t44 -1v-45q0 -32 -11.5 -56.5t-35.5 -53.5q-12 -2 -37 -2z" />
    <glyph glyph-name="Scaron" unicode="&#x160;" horiz-adv-x="489" 
d="M55 23l10 82q48 -19 93.5 -27.5t78.5 -8.5q60 0 92 27q21 23 21 53q0 26 -17 47t-41.5 37t-69.5 40q-55 29 -88.5 51.5t-57.5 56.5t-24 79q0 75 63.5 118.5t166.5 43.5q58 0 140 -21l-14 -83q-74 26 -138 26q-39 0 -70.5 -8t-46.5 -21q-12 -18 -12 -39q0 -35 30.5 -59.5
t94.5 -57.5q55 -29 89.5 -51.5t59 -57.5t24.5 -81t-24 -87t-74 -67t-123 -26q-79 0 -163 34zM68 821q38 5 92 3l79 -66h16l80 66q57 2 92 -3l-115 -126h-126z" />
    <glyph glyph-name="scaron" unicode="&#x161;" horiz-adv-x="417" 
d="M40 19l5 75q78 -31 145 -31q22 0 43.5 4t35.5 12q18 20 18 43q0 29 -25 48.5t-80 48.5q-45 22 -74 41t-49 46.5t-20 64.5q0 62 54.5 98.5t139.5 36.5q62 0 121 -18l-5 -74q-56 20 -120 20q-27 0 -50.5 -4t-35.5 -11q-19 -14 -19 -34q0 -23 23 -40t74 -42q49 -25 80.5 -45
t54 -50.5t22.5 -71.5q0 -40 -23 -73t-68 -53t-109 -20q-72 0 -138 29zM297 758q36 -1 69 -14l-127 -170h-59l-128 170q37 13 70 14l79 -92h16z" />
    <glyph glyph-name="uni0162" unicode="&#x162;" horiz-adv-x="510" 
d="M481 610v-76h-178v-534h-96v534h-177v76h451zM231 -214q-29 0 -37 2l22 79v80q8 1 45 1t46 -1v-44q0 -34 -9 -60t-29 -55q-10 -2 -38 -2z" />
    <glyph glyph-name="uni0163" unicode="&#x163;" horiz-adv-x="347" 
d="M313 419h-112v-340q22 -3 42 -3q33 0 68 6l-1 -74q-48 -14 -88 -14q-62 0 -87.5 23t-25.5 76v327h-75l4 70l76 4l11 119l76 10v-130l118 -1zM182 -214q-27 0 -35 2l32 72v83q8 1 43 1t44 -1v-45q0 -32 -11.5 -56.5t-35.5 -53.5q-12 -2 -37 -2z" />
    <glyph glyph-name="Tcaron" unicode="&#x164;" horiz-adv-x="510" 
d="M481 610v-76h-178v-534h-96v534h-177v76h451zM76 821q38 5 92 3l79 -66h16l80 66q57 2 92 -3l-115 -126h-126z" />
    <glyph glyph-name="tcaron" unicode="&#x165;" horiz-adv-x="347" 
d="M313 419h-112v-340q22 -3 42 -3q33 0 68 6l-1 -74q-48 -14 -88 -14q-62 0 -87.5 23t-25.5 76v327h-75l4 70l76 4l11 119l76 10v-130l118 -1zM263 743l87 12l-22 -216l-33 -1l-33 1z" />
    <glyph glyph-name="Tbar" unicode="&#x166;" horiz-adv-x="510" 
d="M481 610v-76h-178v-201h77l-5 -65h-72v-268h-96v268h-84v65h84v201h-177v76h451z" />
    <glyph glyph-name="tbar" unicode="&#x167;" horiz-adv-x="347" 
d="M313 419h-112v-140h95l-5 -65h-90v-135q22 -3 42 -3q33 0 68 6l-1 -74q-48 -14 -88 -14q-62 0 -87.5 23t-25.5 76v121h-70v65h70v141h-75l4 70l76 4l11 119l76 10v-130l118 -1z" />
    <glyph glyph-name="Umacron" unicode="&#x16a;" horiz-adv-x="610" 
d="M445 610h96v-352q0 -141 -61 -205.5t-182 -64.5q-229 0 -229 262v360h96v-352q0 -95 34.5 -141.5t110.5 -46.5q71 0 103 44t32 136v360zM481 703h-357l5 68h358z" />
    <glyph glyph-name="umacron" unicode="&#x16b;" horiz-adv-x="549" 
d="M105 25q-36 37 -36 116v351h92v-335q0 -48 22.5 -69t69.5 -21q32 0 63 12t66 44v369h93v-492h-80l-7 62q-45 -39 -86 -56.5t-91 -17.5q-70 0 -106 37zM435 580h-329l5 67h330z" />
    <glyph glyph-name="Uring" unicode="&#x16e;" horiz-adv-x="610" 
d="M445 610h96v-352q0 -141 -61 -205.5t-182 -64.5q-229 0 -229 262v360h96v-352q0 -95 34.5 -141.5t110.5 -46.5q71 0 103 44t32 136v360zM211 692q-32 27 -32 76q0 50 35 78.5t96 28.5q54 0 88 -27.5t34 -75.5q0 -50 -35 -78.5t-97 -28.5q-57 0 -89 27zM349 724
q15 16 15 42q0 28 -15 43t-44 15q-31 0 -46 -11q-12 -16 -12 -41q0 -28 16.5 -42.5t46.5 -14.5q24 0 39 9z" />
    <glyph glyph-name="uring" unicode="&#x16f;" horiz-adv-x="549" 
d="M105 25q-36 37 -36 116v351h92v-335q0 -48 22.5 -69t69.5 -21q32 0 63 12t66 44v369h93v-492h-80l-7 62q-45 -39 -86 -56.5t-91 -17.5q-70 0 -106 37zM182 581q-31 30 -31 83q0 54 34 85t93 31q52 0 84.5 -30.5t32.5 -83.5q0 -54 -33.5 -84.5t-93.5 -30.5q-55 0 -86 30z
M320 610q12 21 12 50q0 34 -15 51.5t-44 17.5q-31 0 -46 -12q-12 -17 -12 -49t16.5 -49t46.5 -17q23 0 42 8z" />
    <glyph glyph-name="Uhungarumlaut" unicode="&#x170;" horiz-adv-x="610" 
d="M445 610h96v-352q0 -141 -61 -205.5t-182 -64.5q-229 0 -229 262v360h96v-352q0 -95 34.5 -141.5t110.5 -46.5q71 0 103 44t32 136v360zM236 828q61 3 123 -8l-131 -125h-100zM475 828q59 3 122 -8l-131 -125h-115z" />
    <glyph glyph-name="uhungarumlaut" unicode="&#x171;" horiz-adv-x="549" 
d="M105 25q-36 37 -36 116v351h92v-335q0 -48 22.5 -69t69.5 -21q32 0 63 12t66 44v369h93v-492h-80l-7 62q-45 -39 -86 -56.5t-91 -17.5q-70 0 -106 37zM211 574h-75l109 184q55 -3 103 -22zM384 574h-75l108 184q57 -3 103 -22z" />
    <glyph glyph-name="Uogonek" unicode="&#x172;" horiz-adv-x="610" 
d="M445 610h96v-352q0 -103 -32 -164t-96 -87q-68 -74 -68 -114q0 -31 32 -31q20 0 41 9l-5 -57q-24 -15 -56 -15q-39 0 -64 20t-25 55q0 47 57 115q-9 -1 -27 -1q-229 0 -229 262v360h96v-352q0 -95 34.5 -141.5t110.5 -46.5q71 0 103 44t32 136v360z" />
    <glyph glyph-name="uogonek" unicode="&#x173;" horiz-adv-x="549" 
d="M475 0h-14q-36 -39 -53 -67t-17 -49q0 -31 32 -31q20 0 41 9l-5 -57q-24 -15 -56 -15q-39 0 -64 20t-25 55q0 29 19 61.5t56 74.5h6l-7 61q-45 -39 -86 -56.5t-91 -17.5q-70 0 -106 37t-36 116v351h92v-335q0 -48 22.5 -69t69.5 -21q32 0 63 12t66 44v369h93v-492z" />
    <glyph glyph-name="Wcircumflex" unicode="&#x174;" horiz-adv-x="811" 
d="M271 0h-109l-140 610h98l104 -510h2l137 510h86l141 -510h2l100 510h96l-147 -610h-106l-131 463h-2zM322 695q-59 0 -91 4l117 122h114l119 -122q-33 -4 -93 -4l-75 59h-15z" />
    <glyph glyph-name="wcircumflex" unicode="&#x175;" horiz-adv-x="681" 
d="M550 0h-109l-97 352h-2l-106 -352h-99l-132 492h100l88 -402h2l110 402h82l111 -402h2l86 402h90zM246 574q-40 1 -70 14l128 170h59l127 -170q-30 -13 -69 -14l-80 92h-16z" />
    <glyph glyph-name="Ycircumflex" unicode="&#x176;" horiz-adv-x="516" 
d="M307 0h-96v240l-205 370h111l142 -283h6l142 283h103l-203 -370v-240zM174 695q-59 0 -91 4l117 122h114l119 -122q-33 -4 -93 -4l-75 59h-15z" />
    <glyph glyph-name="ycircumflex" unicode="&#x177;" horiz-adv-x="464" 
d="M244 90l117 402h98l-169 -483l-93 -201h-99l97 194v2l-190 488h102l135 -402h2zM146 574q-40 1 -70 14l128 170h59l127 -170q-30 -13 -69 -14l-80 92h-16z" />
    <glyph glyph-name="Ydieresis" unicode="&#x178;" horiz-adv-x="516" 
d="M307 0h-96v240l-205 370h111l142 -283h6l142 283h103l-203 -370v-240zM98 692q-9 49 -10 97q33 5 71 5q24 0 36 -1l-7 -101h-90zM334 692q-9 49 -10 97q33 5 71 5q24 0 36 -1l-7 -101h-90z" />
    <glyph glyph-name="Zacute" unicode="&#x179;" horiz-adv-x="496" 
d="M459 0h-431l3 66l310 461l-1 7h-300l6 76h409l5 -58l-311 -468l2 -6h316zM280 837q24 2 52 2q55 0 79 -5l-141 -139h-89z" />
    <glyph glyph-name="zacute" unicode="&#x17a;" horiz-adv-x="429" 
d="M396 0h-366l3 65l259 355l-1 1l-246 -1l5 72h343l5 -60l-259 -354l1 -2h264zM246 574h-75l108 184q59 -3 108 -22z" />
    <glyph glyph-name="Zdotaccent" unicode="&#x17b;" horiz-adv-x="496" 
d="M459 0h-431l3 66l310 461l-1 7h-300l6 76h409l5 -58l-311 -468l2 -6h316zM206 689q-9 49 -10 97q33 5 71 5q24 0 36 -1l-7 -101h-90z" />
    <glyph glyph-name="zdotaccent" unicode="&#x17c;" horiz-adv-x="429" 
d="M396 0h-366l3 65l259 355l-1 1l-246 -1l5 72h343l5 -60l-259 -354l1 -2h264zM193 571q-9 49 -10 97q33 5 71 5q24 0 36 -1l-7 -101h-90z" />
    <glyph glyph-name="Zcaron" unicode="&#x17d;" horiz-adv-x="496" 
d="M459 0h-431l3 66l310 461l-1 7h-300l6 76h409l5 -58l-311 -468l2 -6h316zM69 821q38 5 92 3l79 -66h16l80 66q57 2 92 -3l-115 -126h-126z" />
    <glyph glyph-name="zcaron" unicode="&#x17e;" horiz-adv-x="429" 
d="M396 0h-366l3 65l259 355l-1 1l-246 -1l5 72h343l5 -60l-259 -354l1 -2h264zM323 758q36 -1 69 -14l-127 -170h-59l-128 170q37 13 70 14l79 -92h16z" />
    <glyph glyph-name="florin" unicode="&#x192;" horiz-adv-x="459" 
d="M282 435q-19 -23 -25 -77l-7 -69h174l-6 -73h-175l-12 -119q-9 -92 -29 -142t-53.5 -69.5t-88.5 -19.5q-37 0 -65 10l7 80q27 -7 53 -7q29 0 43.5 9.5t22.5 36t14 83.5l15 138h-103l3 65l108 7l7 64q10 101 56.5 143t124.5 42q41 0 93 -15l-9 -77q-36 13 -88 13
q-41 0 -60 -23z" />
    <glyph glyph-name="uni0218" unicode="&#x218;" horiz-adv-x="489" 
d="M55 23l10 82q48 -19 93.5 -27.5t78.5 -8.5q60 0 92 27q21 23 21 53q0 26 -17 47t-41.5 37t-69.5 40q-55 29 -88.5 51.5t-57.5 56.5t-24 79q0 75 63.5 118.5t166.5 43.5q58 0 140 -21l-14 -83q-74 26 -138 26q-39 0 -70.5 -8t-46.5 -21q-12 -18 -12 -39q0 -35 30.5 -59.5
t94.5 -57.5q55 -29 89.5 -51.5t59 -57.5t24.5 -81t-24 -87t-74 -67t-123 -26q-79 0 -163 34zM238 -214q-29 0 -37 2l22 79v80q8 1 45 1t46 -1v-44q0 -34 -9 -60t-29 -55q-10 -2 -38 -2z" />
    <glyph glyph-name="uni0219" unicode="&#x219;" horiz-adv-x="417" 
d="M40 19l5 75q78 -31 145 -31q22 0 43.5 4t35.5 12q18 20 18 43q0 29 -25 48.5t-80 48.5q-45 22 -74 41t-49 46.5t-20 64.5q0 62 54.5 98.5t139.5 36.5q62 0 121 -18l-5 -74q-56 20 -120 20q-27 0 -50.5 -4t-35.5 -11q-19 -14 -19 -34q0 -23 23 -40t74 -42q49 -25 80.5 -45
t54 -50.5t22.5 -71.5q0 -40 -23 -73t-68 -53t-109 -20q-72 0 -138 29zM166 -214q-27 0 -35 2l32 72v83q8 1 43 1t44 -1v-45q0 -32 -11.5 -56.5t-35.5 -53.5q-12 -2 -37 -2z" />
    <glyph glyph-name="uni021A" unicode="&#x21a;" horiz-adv-x="510" 
d="M481 610v-76h-178v-534h-96v534h-177v76h451zM231 -214q-29 0 -37 2l22 79v80q8 1 45 1t46 -1v-44q0 -34 -9 -60t-29 -55q-10 -2 -38 -2z" />
    <glyph glyph-name="uni021B" unicode="&#x21b;" horiz-adv-x="347" 
d="M313 419h-112v-340q22 -3 42 -3q33 0 68 6l-1 -74q-48 -14 -88 -14q-62 0 -87.5 23t-25.5 76v327h-75l4 70l76 4l11 119l76 10v-130l118 -1zM182 -214q-27 0 -35 2l32 72v83q8 1 43 1t44 -1v-45q0 -32 -11.5 -56.5t-35.5 -53.5q-12 -2 -37 -2z" />
    <glyph glyph-name="circumflex" unicode="&#x2c6;" horiz-adv-x="443" 
d="M134 589q-40 1 -70 14l128 170h59l127 -170q-30 -13 -69 -14l-80 92h-16z" />
    <glyph glyph-name="caron" unicode="&#x2c7;" horiz-adv-x="443" 
d="M309 773q36 -1 69 -14l-127 -170h-59l-128 170q37 13 70 14l79 -92h16z" />
    <glyph glyph-name="breve" unicode="&#x2d8;" horiz-adv-x="443" 
d="M378 727q-13 -72 -54.5 -110.5t-102.5 -38.5q-60 0 -101.5 38.5t-55.5 110.5q34 9 64 9q27 -83 93 -83q34 0 57 20t36 63q32 0 64 -9z" />
    <glyph glyph-name="dotaccent" unicode="&#x2d9;" horiz-adv-x="443" 
d="M179 586q-9 49 -10 97q33 5 71 5q24 0 36 -1l-7 -101h-90z" />
    <glyph glyph-name="ring" unicode="&#x2da;" horiz-adv-x="443" 
d="M130 596q-31 30 -31 83q0 54 34 85t93 31q52 0 84.5 -30.5t32.5 -83.5q0 -54 -33.5 -84.5t-93.5 -30.5q-55 0 -86 30zM268 625q12 21 12 50q0 34 -15 51.5t-44 17.5q-31 0 -46 -12q-12 -17 -12 -49t16.5 -49t46.5 -17q23 0 42 8z" />
    <glyph glyph-name="ogonek" unicode="&#x2db;" horiz-adv-x="443" 
d="M98 -191q-25 20 -25 55q0 29 19 61.5t56 74.5h73q-37 -40 -54 -68t-17 -49q0 -31 32 -31q20 0 41 9l-5 -57q-24 -15 -56 -15q-39 0 -64 20z" />
    <glyph glyph-name="tilde" unicode="&#x2dc;" horiz-adv-x="443" 
d="M260.5 596q-24.5 11 -59.5 31q-16 10 -30.5 17t-21.5 7q-11 0 -24.5 -19t-22.5 -42l-57 17q19 52 43.5 81t60.5 29q22 0 42.5 -8t52.5 -26q35 -22 71 -35q25 21 40 63l58 -15q-39 -111 -106 -111q-22 0 -46.5 11z" />
    <glyph glyph-name="hungarumlaut" unicode="&#x2dd;" horiz-adv-x="443" 
d="M159 589h-75l109 184q55 -3 103 -22zM332 589h-75l108 184q57 -3 103 -22z" />
    <glyph glyph-name="gravecomb" unicode="&#x300;" horiz-adv-x="0" 
d="M-338 751q45 18 107 20l108 -182h-75z" />
    <glyph glyph-name="acutecomb" unicode="&#x301;" horiz-adv-x="0" 
d="M-211 589h-75l108 184q59 -3 108 -22z" />
    <glyph glyph-name="uni0302" unicode="&#x302;" horiz-adv-x="0" 
d="M-309 589q-40 1 -70 14l128 170h59l127 -170q-30 -13 -69 -14l-80 92h-16z" />
    <glyph glyph-name="tildecomb" unicode="&#x303;" horiz-adv-x="0" 
d="M-182.5 596q-24.5 11 -59.5 31q-16 10 -30.5 17t-21.5 7q-11 0 -24.5 -19t-22.5 -42l-57 17q19 52 43.5 81t60.5 29q22 0 42.5 -8t52.5 -26q35 -22 71 -35q25 21 40 63l58 -15q-39 -111 -106 -111q-22 0 -46.5 11z" />
    <glyph glyph-name="uni0304" unicode="&#x304;" horiz-adv-x="0" 
d="M-60 595h-329l5 67h330z" />
    <glyph glyph-name="uni0306" unicode="&#x306;" horiz-adv-x="0" 
d="M-65 727q-13 -72 -54.5 -110.5t-102.5 -38.5q-60 0 -101.5 38.5t-55.5 110.5q34 9 64 9q27 -83 93 -83q34 0 57 20t36 63q32 0 64 -9z" />
    <glyph glyph-name="uni0307" unicode="&#x307;" horiz-adv-x="0" 
d="M-264 586q-9 49 -10 97q33 5 71 5q24 0 36 -1l-7 -101h-90z" />
    <glyph glyph-name="uni0308" unicode="&#x308;" horiz-adv-x="0" 
d="M-360 586q-9 49 -10 97q33 5 71 5q24 0 36 -1l-7 -101h-90zM-171 586q-9 49 -10 97q33 5 71 5q24 0 36 -1l-7 -101h-90z" />
    <glyph glyph-name="uni030A" unicode="&#x30a;" horiz-adv-x="0" 
d="M-313 596q-31 30 -31 83q0 54 34 85t93 31q52 0 84.5 -30.5t32.5 -83.5q0 -54 -33.5 -84.5t-93.5 -30.5q-55 0 -86 30zM-175 625q12 21 12 50q0 34 -15 51.5t-44 17.5q-31 0 -46 -12q-12 -17 -12 -49t16.5 -49t46.5 -17q23 0 42 8z" />
    <glyph glyph-name="uni030B" unicode="&#x30b;" horiz-adv-x="0" 
d="M-284 589h-75l109 184q55 -3 103 -22zM-111 589h-75l108 184q57 -3 103 -22z" />
    <glyph glyph-name="uni030C" unicode="&#x30c;" horiz-adv-x="0" 
d="M-134 773q36 -1 69 -14l-127 -170h-59l-128 170q37 13 70 14l79 -92h16z" />
    <glyph glyph-name="uni0312" unicode="&#x312;" horiz-adv-x="0" 
d="M-184 754q27 0 37 -2l-33 -77v-85q-18 -2 -44 -2q-27 0 -43 2v45q0 33 11.5 59t34.5 58q10 2 37 2z" />
    <glyph glyph-name="uni0326" unicode="&#x326;" horiz-adv-x="0" 
d="M-253 -214q-27 0 -35 2l32 72v83q8 1 43 1t44 -1v-45q0 -32 -11.5 -56.5t-35.5 -53.5q-12 -2 -37 -2z" />
    <glyph glyph-name="uni0327" unicode="&#x327;" horiz-adv-x="0" 
d="M-156 -72q18 -9 26 -19t8 -24q0 -22 -13.5 -46t-34.5 -52h-65l38 85l-46 24q-27 12 -27 34q0 12 8 32l24 61l74 -1l-34 -72z" />
    <glyph glyph-name="uni0328" unicode="&#x328;" horiz-adv-x="0" 
d="M-345 -191q-25 20 -25 55q0 29 19 61.5t56 74.5h73q-37 -40 -54 -68t-17 -49q0 -31 32 -31q20 0 41 9l-5 -57q-24 -15 -56 -15q-39 0 -64 20z" />
    <glyph glyph-name="uni0335" unicode="&#x335;" horiz-adv-x="0" 
d="M-232 282h-252v65h257z" />
    <glyph glyph-name="uni0336" unicode="&#x336;" horiz-adv-x="0" 
d="M-50 447h-581l6 59h580z" />
    <glyph glyph-name="uni0337" unicode="&#x337;" horiz-adv-x="0" 
d="M-98 352l-259 -129v80l265 129z" />
    <glyph glyph-name="uni0338" unicode="&#x338;" horiz-adv-x="0" 
d="M-82 583h81l-350 -663h-82z" />
    <glyph glyph-name="uni0394" unicode="&#x394;" horiz-adv-x="541" 
d="M221 615l105 3l194 -547l-7 -71h-495v67zM265 525l-161 -449h322l-155 449h-6z" />
    <glyph glyph-name="uni03A9" unicode="&#x3a9;" horiz-adv-x="676" 
d="M486 83l140 -5v-78h-233v86q63 63 91.5 122.5t28.5 140.5q0 93 -46 144.5t-128 51.5q-86 0 -133.5 -53.5t-47.5 -137.5q0 -81 29 -143t98 -124v-87h-235v78l144 5l2 3q-70 54 -107 122.5t-37 157.5q0 72 33 132.5t99 97t159 36.5q91 0 153 -35t92.5 -95.5t30.5 -137.5
q0 -88 -30 -148.5t-105 -130.5z" />
    <glyph glyph-name="uni03BC" unicode="&#x3bc;" horiz-adv-x="565" 
d="M398 492h93v-492h-80l-8 62q-38 -39 -73.5 -56t-77.5 -17q-49 0 -78 24v-202l-90 -12v693h93v-335q0 -49 22.5 -70t71.5 -21q31 0 61.5 12.5t65.5 44.5v369z" />
    <glyph glyph-name="pi" unicode="&#x3c0;" horiz-adv-x="653" 
d="M488 120q0 -15 2 -43l85 -6l-5 -69q-37 -8 -79 -8q-26 0 -44.5 4t-31.5 16q-12 12 -15.5 32.5t-3.5 54.5v331h-187v-432h-92v432l-81 3l6 72h534l5 -75h-93v-312z" />
    <glyph glyph-name="uni05B0" unicode="&#x5b0;" horiz-adv-x="0" 
d="M191 -145q-7 30 -6 60q18 3 39 3q14 0 21 -1l-1 -60zM194 -253q-7 30 -6 60q18 3 39 3q14 0 21 -1l-1 -60z" />
    <glyph glyph-name="uni05B1" unicode="&#x5b1;" horiz-adv-x="0" 
d="M293 -145q-7 30 -6 60q18 3 39 3q14 0 21 -1l-1 -60zM88 -146q-7 30 -6 60q18 3 39 3q14 0 21 -1l-1 -60zM188 -146q-7 30 -6 60q18 3 39 3q14 0 21 -1l-1 -60zM296 -253q-7 30 -6 60q18 3 39 3q14 0 21 -1l-1 -60zM141 -255q-7 30 -6 60q18 3 39 3q14 0 21 -1l-1 -60z
" />
    <glyph glyph-name="uni05B2" unicode="&#x5b2;" horiz-adv-x="0" 
d="M98 -83q26 1 81 1t78 -1l5 -45q-54 -6 -114 -6q-34 0 -50 1v50zM300 -145q-7 30 -6 60q18 3 39 3q14 0 21 -1l-1 -60zM303 -253q-7 30 -6 60q18 3 39 3q14 0 21 -1l-1 -60z" />
    <glyph glyph-name="uni05B3" unicode="&#x5b3;" horiz-adv-x="0" 
d="M262 -126q-35 -4 -57 -5q5 -47 6 -94h-60q4 58 7 93q-41 0 -60 1v48q26 1 81 1t78 -1zM353 -143l-53 -2q-7 30 -6 60q18 3 39 3q14 0 21 -1zM336 -190q14 0 21 -1l-1 -60l-53 -2q-7 30 -6 60q18 3 39 3z" />
    <glyph glyph-name="uni05B4" unicode="&#x5b4;" horiz-adv-x="0" 
d="M198 -144q-7 30 -6 60q18 3 39 3q14 0 21 -1l-1 -60z" />
    <glyph glyph-name="uni05B5" unicode="&#x5b5;" horiz-adv-x="0" 
d="M141 -148q-7 30 -6 60q18 3 39 3q14 0 21 -1l-1 -60zM252 -148q-7 30 -6 60q18 3 39 3q14 0 21 -1l-1 -60z" />
    <glyph glyph-name="uni05B6" unicode="&#x5b6;" horiz-adv-x="0" 
d="M142 -148q-7 30 -6 60q18 3 39 3q14 0 21 -1l-1 -60zM253 -148q-7 30 -6 60q18 3 39 3q14 0 21 -1l-1 -60zM196 -257q-7 30 -6 60q18 3 39 3q14 0 21 -1l-1 -60z" />
    <glyph glyph-name="uni05B7" unicode="&#x5b7;" horiz-adv-x="0" 
d="M125 -83q31 1 98 1t96 -1v-49q-30 -2 -97 -2t-97 2v49z" />
    <glyph glyph-name="uni05B8" unicode="&#x5b8;" horiz-adv-x="0" 
d="M319 -132q-46 -2 -73 -2q5 -45 6 -91h-62l6 91q-27 0 -71 2v49q31 1 98 1t96 -1v-49z" />
    <glyph glyph-name="uni05B9" unicode="&#x5b9;" horiz-adv-x="0" 
d="M193 681q-9 34 -7 69q38 6 69 3l-2 -69z" />
    <glyph glyph-name="uni05BA" unicode="&#x5ba;" horiz-adv-x="0" 
d="M193 681q-9 34 -7 69q38 6 69 3l-2 -69z" />
    <glyph glyph-name="uni05BB" unicode="&#x5bb;" horiz-adv-x="0" 
d="M163 -130q-7 30 -6 60q18 3 39 3q14 0 21 -1l-1 -60zM243 -202q-7 30 -6 60q18 3 39 3q14 0 21 -1l-1 -60zM321 -278q-7 30 -6 60q18 3 39 3q14 0 21 -1l-1 -60z" />
    <glyph glyph-name="uni05BC" unicode="&#x5bc;" horiz-adv-x="0" 
d="M190 297q-6 29 -5 54q15 3 35 3q13 0 19 -1l-1 -54z" />
    <glyph glyph-name="uni05BE" unicode="&#x5be;" horiz-adv-x="378" 
d="M326 442h-274v77h274v-77z" />
    <glyph glyph-name="uni05BF" unicode="&#x5bf;" horiz-adv-x="0" 
d="M407 564h-216l1 47h216z" />
    <glyph glyph-name="uni05C1" unicode="&#x5c1;" horiz-adv-x="0" 
d="M195 681q-9 34 -7 69q38 6 69 3l-2 -69z" />
    <glyph glyph-name="uni05C2" unicode="&#x5c2;" horiz-adv-x="0" 
d="M195 681q-9 34 -7 69q38 6 69 3l-2 -69z" />
    <glyph glyph-name="uni05C7" unicode="&#x5c7;" horiz-adv-x="0" 
d="M319 -132q-46 -2 -73 -2q5 -45 6 -91h-62l6 91q-27 0 -71 2v49q31 1 98 1t96 -1v-49z" />
    <glyph glyph-name="uni05D0" unicode="&#x5d0;" horiz-adv-x="550" 
d="M34 0q4 69 16 154q12 82 31.5 134.5t53.5 84.5v2l-111 139l1 8l98 7l217 -281h3q19 25 31 74.5t17 108.5q5 48 5 93h96q-1 -32 -10 -107q-19 -150 -88 -229l127 -178l-1 -10h-101l-233 314h-3q-20 -26 -28 -68t-16 -117l-5 -56q-4 -52 -6 -73h-94z" />
    <glyph glyph-name="uni05D1" unicode="&#x5d1;" horiz-adv-x="494" 
d="M395 83l76 -4v-79h-445v82h271v292q0 42 -5 69q-43 5 -97 5q-102 0 -160 -6l-7 80q77 7 166 7q87 0 128 -11.5t57 -44.5t16 -104v-286z" />
    <glyph glyph-name="uni05D2" unicode="&#x5d2;" horiz-adv-x="349" 
d="M285 189l23 -188h-81l-18 97h-3l-168 -104h-11v96l166 94l-19 262q-9 1 -32 1q-20 0 -82 -2l-8 79q47 4 102 4q44 0 66.5 -7.5t34 -30t14.5 -70.5z" />
    <glyph glyph-name="uni05D3" unicode="&#x5d3;" horiz-adv-x="482" 
d="M436 524v-75l-71 -7v-443h-98v233q0 126 12 214h-254l-7 78h418z" />
    <glyph glyph-name="uni05D4" unicode="&#x5d4;" horiz-adv-x="562" 
d="M404 517.5q49 -11.5 67 -45t18 -107.5v-365h-97v353q0 62 -4 89q-43 7 -133 7q-97 0 -201 -8l-6 80q99 8 201 8q106 0 155 -11.5zM64 138q0 75 10 158q36 4 88 4v-300h-98v138z" />
    <glyph glyph-name="uni05D5" unicode="&#x5d5;" horiz-adv-x="278" 
d="M102 0v446h-73l-5 79q25 1 77 1q40 0 60.5 -6.5t29 -24.5t8.5 -54v-441h-97z" />
    <glyph glyph-name="uni05D6" unicode="&#x5d6;" horiz-adv-x="310" 
d="M112 0q-28 242 -28 321q0 72 46 122q-45 2 -100 9l-7 75l50 -1q64 -2 94 -2h96l6 -66q-61 -19 -96 -52l-1 -25q0 -55 9.5 -136t28.5 -221l3 -24h-101z" />
    <glyph glyph-name="uni05D7" unicode="&#x5d7;" horiz-adv-x="602" 
d="M445 518q51 -11 67.5 -43.5t16.5 -109.5v-365h-97v372q0 48 -3 70q-43 7 -143 7q-61 0 -96 -1v-448h-98v234q0 131 8 211l-64 -3l-7 79q103 8 244 8q121 0 172 -11z" />
    <glyph glyph-name="uni05D8" unicode="&#x5d8;" horiz-adv-x="568" 
d="M87 3q-3 20 -12 88l-46 433l95 2l45 -448q18 -3 49 -3q76 0 121 26.5t65 82t20 146.5q0 89 -21 112q-10 5 -40 5q-37 0 -115 -17l-9 84q79 14 133 14q59 0 91.5 -19.5t46 -59.5t13.5 -105q0 -183 -75.5 -266t-237.5 -83q-62 0 -123 8z" />
    <glyph glyph-name="uni05D9" unicode="&#x5d9;" horiz-adv-x="249" 
d="M86 214v232h-72l-8 79q25 1 78 1q41 0 61.5 -6.5t29.5 -24.5t9 -54v-227h-98z" />
    <glyph glyph-name="uni05DA" unicode="&#x5da;" horiz-adv-x="444" 
d="M306 512q40 -17 52.5 -63t12.5 -151v-491h-98v483q0 103 -5 154q-36 5 -95 5q-84 0 -148 -6l-7 80q76 6 154 6q94 0 134 -17z" />
    <glyph glyph-name="uni05DB" unicode="&#x5db;" horiz-adv-x="459" 
d="M328.5 513q42.5 -16 60 -66.5t17.5 -159.5q0 -115 -20 -175.5t-72.5 -86t-156.5 -25.5h-122v82h109q77 0 109 13.5t42.5 54t10.5 137.5q0 110 -9 157q-40 5 -99 5q-84 0 -162 -6l-6 80q66 6 167 6q89 0 131.5 -16z" />
    <glyph glyph-name="uni05DC" unicode="&#x5dc;" horiz-adv-x="441" 
d="M210 0h-103l198 444l-1 2h-281l-10 79l-7 147l87 10l10 -158h289l9 -70z" />
    <glyph glyph-name="uni05DD" unicode="&#x5dd;" horiz-adv-x="612" 
d="M85 0v439l-7 79q119 11 211 11q117 0 166.5 -12t66.5 -49t17 -124v-344h-454zM182 80h259v271q0 44 -4 92q-53 7 -130 7q-47 0 -125 -6v-364z" />
    <glyph glyph-name="uni05DE" unicode="&#x5de;" horiz-adv-x="569" 
d="M39 0l43 404l-38 119l88 4l20 -62q54 32 102.5 46.5t97.5 14.5q57 0 89 -15.5t47 -53t15 -104.5v-353h-249l3 82l149 1v254q0 48 -6 96q-18 13 -72 13q-34 0 -74 -11t-80 -33l-36 -402h-99z" />
    <glyph glyph-name="uni05DF" unicode="&#x5df;" horiz-adv-x="279" 
d="M102 -193v639h-72l-6 78q27 2 78 2q40 0 60.5 -6.5t29 -24.5t8.5 -54v-634h-98z" />
    <glyph glyph-name="uni05E0" unicode="&#x5e0;" horiz-adv-x="341" 
d="M32 0v82h133v364h-104l-5 79q50 2 80 2q59 0 84 -8.5t33.5 -34t8.5 -85.5v-399h-230z" />
    <glyph glyph-name="uni05E1" unicode="&#x5e1;" horiz-adv-x="564" 
d="M442.5 515q44.5 -12 60.5 -49.5t16 -122.5q0 -170 -75 -258.5t-222 -88.5q-69 0 -125 8q-3 17 -7 49q-2 24 -4 34l-40 348q-5 39 -11 125l85 8l10 -45q95 5 166 5q102 -1 146.5 -13zM375 141q45 64 45 208q0 45 -5 92q-45 7 -123 7q-85 0 -153 -4l39 -365q36 -2 53 -2
q99 0 144 64z" />
    <glyph glyph-name="uni05E2" unicode="&#x5e2;" horiz-adv-x="521" 
d="M367 524h101l-21 -257q-9 -103 -63 -161t-152 -91q-76 -24 -205 -48v89q98 18 138 28q-49 181 -139 439l96 5q78 -231 126 -417q54 24 79.5 63t28.5 111z" />
    <glyph glyph-name="uni05E3" unicode="&#x5e3;" horiz-adv-x="521" 
d="M383.5 513.5q36.5 -13.5 50.5 -54.5t14 -131v-520h-98v534q0 71 -5 102q-30 3 -85 3h-50q-53 0 -77 -2v-183l103 -3v-70q-48 -4 -99 -4q-38 0 -57.5 6.5t-29 27t-9.5 63.5v282l80 8l9 -47q49 2 135 2q82 0 118.5 -13.5z" />
    <glyph glyph-name="uni05E4" unicode="&#x5e4;" horiz-adv-x="526" 
d="M272 525q95 0 135.5 -15.5t54 -63t13.5 -159.5v-39q0 -89 -23.5 -143t-75 -79.5t-139.5 -25.5h-172v79h157q69 0 101.5 16.5t43 54t10.5 114.5v37q0 103 -7 141q-35 5 -103 5h-128v-149l102 -3v-66q-52 -3 -107 -3q-32 0 -50 7t-27 27.5t-9 59.5v244l80 8l9 -47h135z" />
    <glyph glyph-name="uni05E5" unicode="&#x5e5;" horiz-adv-x="440" 
d="M127 83q-85 232 -126 440l95 7q34 -185 92 -361h4l118 356h99q-87 -258 -183 -434v-9l101 -274h-100z" />
    <glyph glyph-name="uni05E6" unicode="&#x5e6;" horiz-adv-x="488" 
d="M36 0l2 82h276l2 4q-37 47 -34 43q-71 87 -115 150l-164 238l1 8l98 5l176 -266l3 1l75 260h94q-30 -105 -57.5 -179t-60.5 -137v-3l102 -128l-12 -78h-386z" />
    <glyph glyph-name="uni05E7" unicode="&#x5e7;" horiz-adv-x="541" 
d="M339 0h-98l163 444l-1 3h-359l-6 77h447l10 -75zM49 131q0 87 9 177l44 1q15 1 43 1v-503h-96v324z" />
    <glyph glyph-name="uni05E8" unicode="&#x5e8;" horiz-adv-x="468" 
d="M324 516q44 -12 57.5 -46.5t13.5 -117.5v-352h-98v360q0 56 -2 83q-35 5 -117 5q-71 0 -153 -6l-7 79q93 7 157 7q105 0 149 -12z" />
    <glyph glyph-name="uni05E9" unicode="&#x5e9;" horiz-adv-x="656" 
d="M613 524q0 -221 -38.5 -336t-110 -154t-190.5 -39q-44 0 -93.5 3.5t-86.5 11.5q-9 45 -14 93l-48 421h98l29 -271l5 -1q46 9 71 37t33 89l20 146h95q-15 -93 -25 -152l-4 -26q-13 -77 -61 -112.5t-127 -45.5l11 -107q38 -6 95 -6q90 0 139 27.5t76 124t27 297.5h99z" />
    <glyph glyph-name="uni05EA" unicode="&#x5ea;" horiz-adv-x="620" 
d="M465 516.5q49 -12.5 65.5 -49t16.5 -120.5v-347h-97v340q0 66 -4 101q-49 8 -136 8q-52 0 -83 -1v-322q0 -65 -31.5 -96.5t-111.5 -31.5q-29 0 -59 6v77q20 -2 44 -2q36 0 48.5 14.5t12.5 49.5v301l-89 -5l-8 80q142 10 270 10q113 0 162 -12.5z" />
    <glyph glyph-name="uni05F0" unicode="&#x5f0;" horiz-adv-x="558" 
d="M382 0v446h-73l-5 79q25 1 77 1q40 0 60.5 -6.5t29 -24.5t8.5 -54v-441h-97zM102 0v446h-73l-5 79q25 1 77 1q40 0 60.5 -6.5t29 -24.5t8.5 -54v-441h-97z" />
    <glyph glyph-name="uni05F1" unicode="&#x5f1;" horiz-adv-x="527" 
d="M351 0v446h-73l-5 79q25 1 77 1q40 0 60.5 -6.5t29 -24.5t8.5 -54v-441h-97zM86 214v232h-72l-8 79q25 1 78 1q41 0 61.5 -6.5t29.5 -24.5t9 -54v-227h-98z" />
    <glyph glyph-name="uni05F2" unicode="&#x5f2;" horiz-adv-x="495" 
d="M332 214v232h-72l-8 79q25 1 78 1q41 0 61.5 -6.5t29.5 -24.5t9 -54v-227h-98zM86 214v232h-72l-8 79q25 1 78 1q41 0 61.5 -6.5t29.5 -24.5t9 -54v-227h-98z" />
    <glyph glyph-name="uni05F3" unicode="&#x5f3;" horiz-adv-x="162" 
d="M19 392q16 52 23.5 97.5t7.5 97.5q0 24 -4 60h89q5 -18 5 -44q0 -60 -12.5 -109t-41.5 -102h-67z" />
    <glyph glyph-name="uni05F4" unicode="&#x5f4;" horiz-adv-x="308" 
d="M165 392q16 52 23.5 97.5t7.5 97.5q0 24 -4 60h89q5 -18 5 -44q0 -60 -12.5 -109t-41.5 -102h-67zM19 392q16 52 23.5 97.5t7.5 97.5q0 24 -4 60h89q5 -18 5 -44q0 -60 -12.5 -109t-41.5 -102h-67z" />
    <glyph glyph-name="uni060C" unicode="&#x60c;" horiz-adv-x="220" 
d="M169 234q-16 -46 -23.5 -86.5t-7.5 -88.5q0 -35 4 -59h-89q-5 18 -5 44q0 54 12.5 98t40.5 92h68z" />
    <glyph glyph-name="uni061B" unicode="&#x61b;" horiz-adv-x="187" 
d="M53 0q-8 51 -9 92q30 5 64 5q22 0 33 -1q-2 -50 -6 -96h-82zM168 468q-16 -46 -23.5 -86.5t-7.5 -88.5q0 -35 4 -59h-89q-5 18 -5 44q0 54 12.5 98t40.5 92h68z" />
    <glyph glyph-name="uni061F" unicode="&#x61f;" horiz-adv-x="359" 
d="M177 194l2 22q1 9 2 22t1 27q0 23 -8.5 44t-26 46t-36.5 51q-35 47 -51.5 77.5t-16.5 64.5q0 63 64.5 104t169.5 48l33 -73q-89 -13 -132.5 -35t-43.5 -56q0 -17 10.5 -35.5t24 -37.5t18.5 -26q34 -44 53 -82t19 -81q0 -26 -10 -80h-72zM167 0q-4 46 -6 96q11 1 33 1
q33 0 65 -5q-1 -33 -10 -92h-82z" />
    <glyph glyph-name="uni0621" unicode="&#x621;" horiz-adv-x="391" 
d="M382 127l-8 -91l-344 -76v71l79 30q-52 47 -52 97q0 53 25 96t65 67t84 24q47 0 104 -27l-10 -70q-51 11 -86 11q-41 0 -78 -24t-37 -55q6 -23 32.5 -47t70.5 -41z" />
    <glyph glyph-name="uni0622" unicode="&#x622;" horiz-adv-x="289" 
d="M188 0h-87v595l87 9v-604zM13 685q41 29 94 29q22 0 46 -3q51 -3 56 -3q43 0 87 11v-34q-15 -12 -42.5 -19t-59.5 -7q-16 0 -40 3q-9 1 -23 2t-33 1q-21 0 -39 -3.5t-46 -12.5v36z" />
    <glyph glyph-name="uni0623" unicode="&#x623;" horiz-adv-x="289" 
d="M188 0h-87v595l87 9v-604zM256 728v-48l-218 -42v42l56 16q-35 30 -35 68q0 35 29.5 60t74.5 25q28 0 55 -9l-7 -53q-22 9 -53 9q-21 0 -37.5 -6t-19.5 -20q2 -18 21.5 -32.5t58.5 -23.5z" />
    <glyph glyph-name="uni0624" unicode="&#x624;" horiz-adv-x="428" 
d="M307 312q40 -31 65 -90t25 -140q0 -152 -90 -231.5t-253 -79.5l-10 82q124 8 189 42.5t83 105.5q-92 1 -147.5 13t-84 43t-28.5 88q0 49 20 94.5t57.5 74.5t87.5 29q46 0 86 -31zM168.5 105q46.5 -17 155.5 -18q-4 80 -38 122.5t-80 42.5q-42 0 -63 -27t-21 -61
q0 -42 46.5 -59zM332 471v-48l-218 -42v42l56 16q-35 30 -35 68q0 35 29.5 60t74.5 25q28 0 55 -9l-7 -53q-22 9 -53 9q-21 0 -37.5 -6t-19.5 -20q2 -18 21.5 -32.5t58.5 -23.5z" />
    <glyph glyph-name="uni0625" unicode="&#x625;" horiz-adv-x="289" 
d="M188 0h-87v724l87 9v-733zM254 -196v-48l-218 -42v42l56 16q-35 30 -35 68q0 35 29.5 60t74.5 25q28 0 55 -9l-7 -53q-22 9 -53 9q-21 0 -37.5 -6t-19.5 -20q2 -18 21.5 -32.5t58.5 -23.5z" />
    <glyph glyph-name="uni0626" unicode="&#x626;" horiz-adv-x="694" 
d="M597 113q32 -19 44.5 -47t12.5 -74q0 -59 -21 -99q-45 -57 -124 -87.5t-180 -30.5q-292 0 -292 262q0 46 8 94.5t24 92.5h74q-22 -86 -22 -159q0 -98 55.5 -145.5t170.5 -47.5q78 0 136 19.5t88 53.5q6 15 6 26q0 24 -7.5 39.5t-32 28t-73.5 23.5q-63 16 -98 33.5
t-51.5 46t-16.5 74.5q0 54 29.5 99t81.5 71t116 26q58 0 115 -24l-11 -84q-26 8 -58 12t-54 4q-40 0 -73.5 -12.5t-54 -33t-22.5 -43.5q3 -22 16 -35t39.5 -23t81.5 -25q61 -16 93 -35zM226 364v-48l-218 -42v42l56 16q-35 30 -35 68q0 35 29.5 60t74.5 25q28 0 55 -9
l-7 -53q-22 9 -53 9q-21 0 -37.5 -6t-19.5 -20q2 -18 21.5 -32.5t58.5 -23.5z" />
    <glyph glyph-name="uni0627" unicode="&#x627;" horiz-adv-x="289" 
d="M188 0h-87v724l87 9v-733z" />
    <glyph glyph-name="uni0628" unicode="&#x628;" horiz-adv-x="808" 
d="M728 367q11 -125 11 -204q0 -67 -11 -101q-48 -39 -143 -56.5t-207 -17.5q-341 0 -341 202q0 68 25 138h76q-16 -52 -16 -101q0 -51 25.5 -82.5t84.5 -47t161 -15.5q170 0 269 32q-4 96 -18 243zM335 -182q-9 42 -8 80q21 4 54 4q18 0 27 -1l-2 -80z" />
    <glyph glyph-name="uni0629" unicode="&#x629;" horiz-adv-x="404" 
d="M72 31.5q-48 41.5 -48 114.5q0 62 29.5 122.5t91.5 122.5l81 9q76 -45 114 -104t38 -124q0 -34 -7.5 -66.5t-22.5 -56.5q-23 -28 -61.5 -43.5t-90.5 -15.5q-76 0 -124 41.5zM297 105q10 19 10 52q0 45 -28 84.5t-93 76.5q-94 -70 -94 -155q0 -41 31 -63.5t81 -22.5
q65 0 93 28zM214 483q-9 42 -8 80q21 4 54 4q18 0 27 -1l-2 -80zM81 479q-9 42 -8 80q21 4 54 4q18 0 27 -1l-2 -80z" />
    <glyph glyph-name="uni062A" unicode="&#x62a;" horiz-adv-x="808" 
d="M728 367q11 -125 11 -204q0 -67 -11 -101q-48 -39 -143 -56.5t-207 -17.5q-341 0 -341 202q0 68 25 138h76q-16 -52 -16 -101q0 -51 25.5 -82.5t84.5 -47t161 -15.5q170 0 269 32q-4 96 -18 243zM418 424q-9 42 -8 80q21 4 54 4q18 0 27 -1l-2 -80zM285 420q-9 42 -8 80
q21 4 54 4q18 0 27 -1l-2 -80z" />
    <glyph glyph-name="uni062B" unicode="&#x62b;" horiz-adv-x="808" 
d="M728 367q11 -125 11 -204q0 -67 -11 -101q-48 -39 -143 -56.5t-207 -17.5q-341 0 -341 202q0 68 25 138h76q-16 -52 -16 -101q0 -51 25.5 -82.5t84.5 -47t161 -15.5q170 0 269 32q-4 96 -18 243zM359 553q-9 41 -8 76q20 4 51 4q18 0 26 -1l-2 -76zM418 424q-9 42 -8 80
q21 4 54 4q18 0 27 -1l-2 -80zM285 420q-9 42 -8 80q21 4 54 4q18 0 27 -1l-2 -80z" />
    <glyph glyph-name="uni062C" unicode="&#x62c;" horiz-adv-x="616" 
d="M583 368v-1l-13 -86h-4q-157 -42 -254.5 -85t-146 -94t-48.5 -117q0 -84 73 -126t195 -42q70 0 160 18l-10 -78q-86 -33 -182 -33t-168.5 30t-112 85t-39.5 129q0 112 95 195t283 149q-26 8 -38 13q-63 21 -106.5 31.5t-92.5 10.5q-58 0 -125 -31l12 89q27 13 61.5 20
t66.5 7q49 0 94 -11t107 -32q64 -21 104.5 -31t85.5 -11zM326 -25q-9 43 -8 79q21 4 54 4q18 0 27 -1l-2 -79z" />
    <glyph glyph-name="uni062D" unicode="&#x62d;" horiz-adv-x="616" 
d="M583 368v-1l-13 -86h-4q-157 -42 -254.5 -85t-146 -94t-48.5 -117q0 -84 73 -126t195 -42q70 0 160 18l-10 -78q-86 -33 -182 -33t-168.5 30t-112 85t-39.5 129q0 112 95 195t283 149q-26 8 -38 13q-63 21 -106.5 31.5t-92.5 10.5q-58 0 -125 -31l12 89q27 13 61.5 20
t66.5 7q49 0 94 -11t107 -32q64 -21 104.5 -31t85.5 -11z" />
    <glyph glyph-name="uni062E" unicode="&#x62e;" horiz-adv-x="616" 
d="M583 368v-1l-13 -86h-4q-157 -42 -254.5 -85t-146 -94t-48.5 -117q0 -84 73 -126t195 -42q70 0 160 18l-10 -78q-86 -33 -182 -33t-168.5 30t-112 85t-39.5 129q0 112 95 195t283 149q-26 8 -38 13q-63 21 -106.5 31.5t-92.5 10.5q-58 0 -125 -31l12 89q27 13 61.5 20
t66.5 7q49 0 94 -11t107 -32q64 -21 104.5 -31t85.5 -11zM232 533q-9 42 -8 80q21 4 54 4q18 0 27 -1l-2 -80z" />
    <glyph glyph-name="uni062F" unicode="&#x62f;" horiz-adv-x="456" 
d="M38 92q59 -10 132 -10q119 0 173 13q-5 86 -56 169.5t-143 145.5l58 68q69 -46 117.5 -109.5t72.5 -130.5t24 -128q0 -49 -7 -86q-92 -34 -251 -34q-80 0 -133 10z" />
    <glyph glyph-name="uni0630" unicode="&#x630;" horiz-adv-x="456" 
d="M38 92q59 -10 132 -10q119 0 173 13q-5 86 -56 169.5t-143 145.5l58 68q69 -46 117.5 -109.5t72.5 -130.5t24 -128q0 -49 -7 -86q-92 -34 -251 -34q-80 0 -133 10zM158 565q-9 42 -8 80q21 4 54 4q18 0 27 -1l-2 -80z" />
    <glyph glyph-name="uni0631" unicode="&#x631;" horiz-adv-x="282" 
d="M-57 -225l-10 72q95 18 152 81t66 168q-7 71 -41 189l83 20q28 -104 28 -195q0 -92 -33 -169t-92.5 -122t-135.5 -45q-11 0 -17 1z" />
    <glyph glyph-name="uni0632" unicode="&#x632;" horiz-adv-x="282" 
d="M-57 -225l-10 72q95 18 152 81t66 168q-7 71 -41 189l83 20q28 -104 28 -195q0 -92 -33 -169t-92.5 -122t-135.5 -45q-11 0 -17 1zM85 386q-9 42 -8 80q21 4 54 4q18 0 27 -1l-2 -80z" />
    <glyph glyph-name="uni0633" unicode="&#x633;" horiz-adv-x="1174" 
d="M1075 326q15 -89 15 -200q0 -44 -3 -69t-10 -43q-30 -20 -114 -20q-66 0 -108.5 13t-65.5 44q-21 -29 -58.5 -43t-83.5 -14q-31 0 -51.5 6t-36.5 20q-2 -80 -13 -116q-38 -39 -107.5 -60t-148.5 -21q-119 0 -186 57.5t-67 170.5q0 81 31 159h73q-20 -73 -20 -127
q0 -85 46.5 -125t142.5 -40q51 0 95.5 10t75.5 29q2 12 2 36q0 31 -4.5 107.5t-6.5 101.5l-3 48l83 9l7 -100q4 -45 24 -60t71 -15q65 0 89 24q2 15 2 62v99l81 6v-94q0 -38 13.5 -58.5t42 -28.5t79.5 -8q34 0 50 5q-1 115 -20 225z" />
    <glyph glyph-name="uni0634" unicode="&#x634;" horiz-adv-x="1174" 
d="M1075 326q15 -89 15 -200q0 -44 -3 -69t-10 -43q-30 -20 -114 -20q-66 0 -108.5 13t-65.5 44q-21 -29 -58.5 -43t-83.5 -14q-31 0 -51.5 6t-36.5 20q-2 -80 -13 -116q-38 -39 -107.5 -60t-148.5 -21q-119 0 -186 57.5t-67 170.5q0 81 31 159h73q-20 -73 -20 -127
q0 -85 46.5 -125t142.5 -40q51 0 95.5 10t75.5 29q2 12 2 36q0 31 -4.5 107.5t-6.5 101.5l-3 48l83 9l7 -100q4 -45 24 -60t71 -15q65 0 89 24q2 15 2 62v99l81 6v-94q0 -38 13.5 -58.5t42 -28.5t79.5 -8q34 0 50 5q-1 115 -20 225zM759 500q-9 41 -8 76q20 4 51 4
q18 0 26 -1l-2 -76zM818 371q-9 42 -8 80q21 4 54 4q18 0 27 -1l-2 -80zM685 367q-9 42 -8 80q21 4 54 4q18 0 27 -1l-2 -80z" />
    <glyph glyph-name="uni0635" unicode="&#x635;" horiz-adv-x="1162" 
d="M1068.5 294.5q48.5 -54.5 48.5 -148.5q0 -68 -19 -97q-41 -26 -129.5 -40.5t-185.5 -14.5q-86 0 -137 12t-80 42v-1q0 -106 -17 -143q-37 -39 -107 -60t-152 -21q-119 0 -186 57.5t-67 170.5q0 81 31 159h73q-20 -73 -20 -126q0 -86 45 -125.5t139 -39.5q52 0 98 9.5
t80 28.5v36q0 53 -13 259l87 10q7 -96 39 -133q108 123 183.5 171.5t152.5 48.5q88 0 136.5 -54.5zM1044 122q0 68 -34.5 102.5t-99.5 34.5q-57 0 -118 -36.5t-141 -126.5q24 -7 56 -9t85 -2q143 0 250 23q2 5 2 14z" />
    <glyph glyph-name="uni0636" unicode="&#x636;" horiz-adv-x="1162" 
d="M1068.5 294.5q48.5 -54.5 48.5 -148.5q0 -68 -19 -97q-41 -26 -129.5 -40.5t-185.5 -14.5q-86 0 -137 12t-80 42v-1q0 -106 -17 -143q-37 -39 -107 -60t-152 -21q-119 0 -186 57.5t-67 170.5q0 81 31 159h73q-20 -73 -20 -126q0 -86 45 -125.5t139 -39.5q52 0 98 9.5
t80 28.5v36q0 53 -13 259l87 10q7 -96 39 -133q108 123 183.5 171.5t152.5 48.5q88 0 136.5 -54.5zM1044 122q0 68 -34.5 102.5t-99.5 34.5q-57 0 -118 -36.5t-141 -126.5q24 -7 56 -9t85 -2q143 0 250 23q2 5 2 14zM872 430q-9 42 -8 80q21 4 54 4q18 0 27 -1l-2 -80z" />
    <glyph glyph-name="uni0637" unicode="&#x637;" horiz-adv-x="695" 
d="M601.5 300.5q48.5 -54.5 48.5 -148.5q0 -68 -19 -97q-41 -26 -129.5 -40.5t-185.5 -14.5q-162 0 -287 16l-25 84q45 -4 90 -6q35 42 66 75v555l84 9v-336q0 -91 -6 -149q64 58 117.5 82.5t109.5 24.5q88 0 136.5 -54.5zM577 128q0 68 -34.5 102.5t-99.5 34.5
q-59 0 -121.5 -39t-146.5 -134q46 -1 150 -1q143 0 250 23q2 5 2 14z" />
    <glyph glyph-name="uni0638" unicode="&#x638;" horiz-adv-x="695" 
d="M601.5 300.5q48.5 -54.5 48.5 -148.5q0 -68 -19 -97q-41 -26 -129.5 -40.5t-185.5 -14.5q-162 0 -287 16l-25 84q45 -4 90 -6q35 42 66 75v555l84 9v-336q0 -91 -6 -149q64 58 117.5 82.5t109.5 24.5q88 0 136.5 -54.5zM577 128q0 68 -34.5 102.5t-99.5 34.5
q-59 0 -121.5 -39t-146.5 -134q46 -1 150 -1q143 0 250 23q2 5 2 14zM405 436q-9 42 -8 80q21 4 54 4q18 0 27 -1l-2 -80z" />
    <glyph glyph-name="uni0639" unicode="&#x639;" horiz-adv-x="472" 
d="M486 -167l-4 -79q-77 -30 -167 -30q-92 0 -160.5 30.5t-105.5 83.5t-37 117q0 67 38.5 126.5t113.5 101.5q-51 32 -79.5 81.5t-28.5 97.5q0 51 30 92t78 64.5t99 23.5q52 0 110 -25l-10 -83q-26 9 -55 13t-49 4q-45 0 -81.5 -19.5t-47.5 -56.5q0 -42 32.5 -81.5
t94.5 -58.5q36 11 77 22t78 18l-6 -85q-159 -33 -235.5 -90t-76.5 -128q0 -77 71.5 -116t179.5 -39q73 0 141 16z" />
    <glyph glyph-name="uni063A" unicode="&#x63a;" horiz-adv-x="472" 
d="M486 -167l-4 -79q-77 -30 -167 -30q-92 0 -160.5 30.5t-105.5 83.5t-37 117q0 67 38.5 126.5t113.5 101.5q-51 32 -79.5 81.5t-28.5 97.5q0 51 30 92t78 64.5t99 23.5q52 0 110 -25l-10 -83q-26 9 -55 13t-49 4q-45 0 -81.5 -19.5t-47.5 -56.5q0 -42 32.5 -81.5
t94.5 -58.5q36 11 77 22t78 18l-6 -85q-159 -33 -235.5 -90t-76.5 -128q0 -77 71.5 -116t179.5 -39q73 0 141 16zM230 623q-9 42 -8 80q21 4 54 4q18 0 27 -1l-2 -80z" />
    <glyph glyph-name="uni0640" unicode="&#x640;" horiz-adv-x="213" 
d="M0 0q-13 0 -19 11t-6 35t6 34.5t19 10.5h212q26 0 26 -45q0 -46 -26 -46h-212z" />
    <glyph glyph-name="uni0641" unicode="&#x641;" horiz-adv-x="821" 
d="M630 590l-70 -3q-9 42 -8 79q21 4 53 4q19 0 27 -1zM678.5 477q39.5 -30 64 -88.5t24.5 -138.5q0 -73 -11 -137t-25 -77q-41 -24 -140.5 -40.5t-217.5 -16.5q-336 0 -336 203q0 67 25 137h76q-16 -52 -16 -101q0 -51 25 -82.5t84 -47t160 -15.5q93 0 171.5 7.5
t119.5 19.5q8 56 9 76q-91 1 -147 13t-85 42t-29 86q0 46 19.5 90t56.5 72t87 28q46 0 85.5 -30zM540.5 277q45.5 -16 151.5 -17q-4 76 -37.5 117t-76.5 41q-41 0 -62 -26t-21 -58q0 -41 45.5 -57z" />
    <glyph glyph-name="uni0642" unicode="&#x642;" horiz-adv-x="668" 
d="M541.5 314q40.5 -31 65.5 -90t25 -140q0 -69 -13.5 -127t-32.5 -86q-32 -37 -94.5 -66.5t-166.5 -29.5q-146 0 -217 67t-71 191q0 94 31 184h74q-21 -82 -21 -155q0 -97 55.5 -143.5t171.5 -46.5q130 0 195 65q8 42 11 65q-95 2 -151 14t-84.5 43t-28.5 89q0 49 19.5 94
t57 74t87.5 29q47 0 87.5 -31zM401 107.5q46 -16.5 155 -17.5q-3 54 -20 91t-42.5 55.5t-53.5 18.5q-42 0 -63.5 -27.5t-21.5 -61.5q0 -42 46 -58.5zM482 432q-9 42 -8 80q21 4 54 4q18 0 27 -1l-2 -80zM349 428q-9 42 -8 80q21 4 54 4q18 0 27 -1l-2 -80z" />
    <glyph glyph-name="uni0643" unicode="&#x643;" horiz-adv-x="773" 
d="M590 724l86 9v-542q0 -85 -11 -129q-44 -39 -132.5 -56.5t-189.5 -17.5q-157 0 -231.5 43t-74.5 148q0 60 25 126h76q-16 -51 -16 -98t22 -74t72.5 -39t139.5 -12q144 0 233 27q1 21 1 61v554zM331 319q-46 0 -63 2v44h147l-124 100v48l169 72v-49l-119 -48l103 -86
q13 -9 17 -19.5t4 -24.5q0 -20 -6 -31q-46 -8 -128 -8z" />
    <glyph glyph-name="uni0644" unicode="&#x644;" horiz-adv-x="647" 
d="M466 724l87 9v-686q0 -106 -17 -143q-36 -39 -102 -60t-144 -21q-119 0 -186 57.5t-67 170.5q0 81 31 159h73q-20 -73 -20 -126q0 -86 45 -125.5t138 -39.5q47 0 89 9t72 26q1 12 1 29.5v25.5v715z" />
    <glyph glyph-name="uni0645" unicode="&#x645;" horiz-adv-x="479" 
d="M357 311.5q41 -31.5 64 -84.5t23 -116q0 -74 -29 -103q-43 -11 -154 -11q-67 0 -130 -3v-266l-86 -10v226q0 39 5 74.5t12 54.5q23 5 46 8q-7 46 -7 70q0 56 20.5 100t57.5 68t84 24q53 0 94 -31.5zM370 100q0 36 -14 70.5t-41 57t-65 22.5q-36 0 -59 -23.5t-23 -63.5
q0 -35 11 -77q29 1 93 1q92 0 97 2q1 3 1 11z" />
    <glyph glyph-name="uni0646" unicode="&#x646;" horiz-adv-x="614" 
d="M337 324l-72 -3q-9 43 -8 81q21 4 54 4q19 0 28 -1zM557 262q9 -133 9 -215q0 -106 -17 -143q-37 -39 -107 -60t-152 -21q-119 0 -186 57.5t-67 170.5q0 81 31 159h73q-20 -73 -20 -126q0 -86 45 -125.5t139 -39.5q52 0 98 9.5t80 28.5v36q0 53 -13 259z" />
    <glyph glyph-name="uni0647" unicode="&#x647;" horiz-adv-x="404" 
d="M72 31.5q-48 41.5 -48 114.5q0 62 29.5 122.5t91.5 122.5l81 9q76 -45 114 -104t38 -124q0 -34 -7.5 -66.5t-22.5 -56.5q-23 -28 -61.5 -43.5t-90.5 -15.5q-76 0 -124 41.5zM297 105q10 19 10 52q0 45 -28 84.5t-93 76.5q-94 -70 -94 -155q0 -41 31 -63.5t81 -22.5
q65 0 93 28z" />
    <glyph glyph-name="uni0648" unicode="&#x648;" horiz-adv-x="428" 
d="M307 312q40 -31 65 -90t25 -140q0 -152 -90 -231.5t-253 -79.5l-10 82q124 8 189 42.5t83 105.5q-92 1 -147.5 13t-84 43t-28.5 88q0 49 20 94.5t57.5 74.5t87.5 29q46 0 86 -31zM168.5 105q46.5 -17 155.5 -18q-4 80 -38 122.5t-80 42.5q-42 0 -63 -27t-21 -61
q0 -42 46.5 -59z" />
    <glyph glyph-name="uni0649" unicode="&#x649;" horiz-adv-x="694" 
d="M597 113q32 -19 44.5 -47t12.5 -74q0 -59 -21 -99q-45 -57 -124 -87.5t-180 -30.5q-292 0 -292 262q0 46 8 94.5t24 92.5h74q-22 -86 -22 -159q0 -98 55.5 -145.5t170.5 -47.5q78 0 136 19.5t88 53.5q6 15 6 26q0 24 -7.5 39.5t-32 28t-73.5 23.5q-63 16 -98 33.5
t-51.5 46t-16.5 74.5q0 54 29.5 99t81.5 71t116 26q58 0 115 -24l-11 -84q-26 8 -58 12t-54 4q-40 0 -73.5 -12.5t-54 -33t-22.5 -43.5q3 -22 16 -35t39.5 -23t81.5 -25q61 -16 93 -35z" />
    <glyph glyph-name="uni064A" unicode="&#x64a;" horiz-adv-x="694" 
d="M597 113q32 -19 44.5 -47t12.5 -74q0 -59 -21 -99q-45 -57 -124 -87.5t-180 -30.5q-292 0 -292 262q0 46 8 94.5t24 92.5h74q-22 -86 -22 -159q0 -98 55.5 -145.5t170.5 -47.5q78 0 136 19.5t88 53.5q6 15 6 26q0 24 -7.5 39.5t-32 28t-73.5 23.5q-63 16 -98 33.5
t-51.5 46t-16.5 74.5q0 54 29.5 99t81.5 71t116 26q58 0 115 -24l-11 -84q-26 8 -58 12t-54 4q-40 0 -73.5 -12.5t-54 -33t-22.5 -43.5q3 -22 16 -35t39.5 -23t81.5 -25q61 -16 93 -35zM223 -397q-9 42 -8 80q21 4 54 4q18 0 27 -1l-2 -80zM356 -397q-9 42 -8 80q21 4 54 4
q18 0 27 -1l-2 -80z" />
    <glyph glyph-name="uni064B" unicode="&#x64b;" horiz-adv-x="0" 
d="M329 569l-217 -42v42l217 42v-42zM327 658l-217 -42v42l217 42v-42z" />
    <glyph glyph-name="uni064C" unicode="&#x64c;" horiz-adv-x="0" 
d="M333.5 746q17.5 -18 17.5 -54q0 -32 -16.5 -61t-46.5 -47t-70 -18q-42 0 -61.5 22.5t-19.5 78.5q0 18 -3.5 22.5t-16.5 4.5q-8 0 -25.5 -4.5t-29.5 -10.5l4 39q40 17 68 17q20 0 28.5 -11.5t8.5 -40.5q0 -33 5.5 -48t17 -20t34.5 -5q22 0 40 6q-28 12 -41 28.5t-13 40.5
q0 31 20 55t55 24q27 0 44.5 -18zM314 683q0 20 -10 30t-24 10q-16 0 -23.5 -9t-7.5 -21q0 -17 13.5 -29t40.5 -21q11 17 11 40z" />
    <glyph glyph-name="uni064D" unicode="&#x64d;" horiz-adv-x="0" 
d="M329 -68l-217 -42v43l217 42v-43zM329 -157l-217 -42v43l217 42v-43z" />
    <glyph glyph-name="uni064E" unicode="&#x64e;" horiz-adv-x="0" 
d="M329 569l-217 -42v42l217 42v-42z" />
    <glyph glyph-name="uni064F" unicode="&#x64f;" horiz-adv-x="0" 
d="M304.5 745q18.5 -19 18.5 -55q0 -54 -45.5 -90.5t-126.5 -36.5q-29 0 -42 4v44q20 -2 51 -2q36 0 60 7q-22 11 -32.5 28.5t-10.5 38.5q0 33 23 57t57 24q29 0 47.5 -19zM284 679q0 20 -9.5 31t-26.5 11q-16 0 -24 -9t-8 -22q0 -18 11.5 -30t38.5 -20q18 17 18 39z" />
    <glyph glyph-name="uni0650" unicode="&#x650;" horiz-adv-x="0" 
d="M329 -68l-217 -42v43l217 42v-43z" />
    <glyph glyph-name="uni0651" unicode="&#x651;" horiz-adv-x="0" 
d="M109 569q-13 17 -13 49q0 23 8 45l36 6q-5 -12 -5 -32t7 -27.5t25 -7.5q24 0 36 14q-3 23 -1 63l39 7v-30q0 -23 6 -31t21 -8q20 0 38 9q3 15 3 30q0 14 -4 40l41 7q3 -12 3 -32q0 -54 -20.5 -78t-68.5 -24q-23 0 -38 13q-10 -14 -28.5 -22t-39.5 -8q-32 0 -45 17z" />
    <glyph glyph-name="uni0652" unicode="&#x652;" horiz-adv-x="0" 
d="M157.5 578q-20.5 21 -20.5 55q0 36 26 61.5t65 25.5q33 0 54.5 -20t21.5 -55q0 -37 -24.5 -62.5t-66.5 -25.5q-35 0 -55.5 21zM246 610q11 10 11 29q0 18 -10 28t-26 10q-18 0 -28.5 -11t-10.5 -30q0 -16 9.5 -26t24.5 -10q19 0 30 10z" />
    <glyph glyph-name="uni0653" unicode="&#x653;" horiz-adv-x="0" 
d="M87 587q41 29 94 29q22 0 46 -3q51 -3 56 -3q43 0 87 11v-34q-15 -12 -42.5 -19t-59.5 -7q-16 0 -40 3q-9 1 -23 2t-33 1q-21 0 -39 -3.5t-46 -12.5v36z" />
    <glyph glyph-name="uni0654" unicode="&#x654;" horiz-adv-x="0" 
d="M330 617v-48l-218 -42v42l56 16q-35 30 -35 68q0 35 29.5 60t74.5 25q28 0 55 -9l-7 -53q-22 9 -53 9q-21 0 -37.5 -6t-19.5 -20q2 -18 21.5 -32.5t58.5 -23.5z" />
    <glyph glyph-name="uni0655" unicode="&#x655;" horiz-adv-x="0" 
d="M328 -196v-48l-218 -42v42l56 16q-35 30 -35 68q0 35 29.5 60t74.5 25q28 0 55 -9l-7 -53q-22 9 -53 9q-21 0 -37.5 -6t-19.5 -20q2 -18 21.5 -32.5t58.5 -23.5z" />
    <glyph glyph-name="uni0656" unicode="&#x656;" horiz-adv-x="0" 
d="M241 -206l-44 -4v157l46 6z" />
    <glyph glyph-name="uni065D" unicode="&#x65d;" horiz-adv-x="0" 
d="M319 609v-44q-24 -3 -44 -3q-69 0 -107.5 34t-38.5 82q0 39 21.5 65t59.5 26q29 0 45 -16.5t16 -45.5q0 -54 -58 -85q28 -14 79 -14q18 0 27 1zM177 715.5q-9 -10.5 -9 -29.5q0 -23 13 -40q28 13 38.5 25.5t10.5 27.5q0 13 -7.5 20t-20.5 7q-16 0 -25 -10.5z" />
    <glyph glyph-name="uni0660" unicode="&#x660;" horiz-adv-x="323" 
d="M74 280q35 44 88 86q48 -35 86 -88q-44 -37 -86 -82q-49 53 -88 84z" />
    <glyph glyph-name="uni0661" unicode="&#x661;" horiz-adv-x="262" 
d="M97 158q0 246 -29 461l98 10q22 -192 22 -461v-168h-91v158z" />
    <glyph glyph-name="uni0662" unicode="&#x662;" horiz-adv-x="487" 
d="M424 436q-35 -40 -118 -40q-72 0 -119 46l-6 -1q13 -131 15 -245l5 -196h-88l-5 182q-8 252 -34 438l81 8q30 -74 68 -108.5t91 -34.5q28 0 46 10q1 34 -3 75.5t-5 50.5l74 7q10 -66 10 -126q0 -40 -12 -66z" />
    <glyph glyph-name="uni0663" unicode="&#x663;" horiz-adv-x="577" 
d="M520 628q16 -99 16 -167q0 -23 -3 -46t-9 -35q-16 -8 -50 -8q-22 0 -60 8t-74 24h-4q-24 -30 -82 -30q-35 0 -67 11l-3 -2q4 -107 6 -231l4 -152h-88l-6 205q-5 213 -31 415l84 8q14 -63 24 -145q30 -15 68 -15q14 0 23.5 3t21.5 11l-15 140l69 6q6 -31 9.5 -67.5
t6.5 -73.5q19 -10 47 -18.5t59 -9.5l-17 163z" />
    <glyph glyph-name="uni0664" unicode="&#x664;" horiz-adv-x="435" 
d="M154 8.5q-48 17.5 -78 51t-30 80.5q0 45 27 84t62.5 64.5t57.5 32.5v8q-56 22 -97.5 60t-41.5 85q0 39 28.5 80t81.5 68.5t122 27.5q55 0 83 -9l-5 -81q-32 7 -68 7q-55 0 -97.5 -19.5t-64.5 -58.5v-8q16 -39 84.5 -65.5t147.5 -27.5l-1 -81q-181 -41 -234 -143v-8
q13 -33 56 -50.5t90 -17.5q66 0 122 20l-1 -88q-22 -13 -61.5 -21t-81.5 -8q-53 0 -101 17.5z" />
    <glyph glyph-name="uni0665" unicode="&#x665;" horiz-adv-x="515" 
d="M368 518.5q47 -41.5 74 -115.5t27 -168q0 -69 -26.5 -124.5t-77 -87.5t-118.5 -32q-59 0 -104.5 26.5t-71 78t-25.5 121.5q0 87 26.5 166t76 128t114.5 49q58 0 105 -41.5zM346.5 116.5q39.5 27.5 46.5 91.5q-4 128 -40.5 192t-100.5 64q-34 0 -64 -30.5t-48.5 -86
t-19.5 -128.5q5 -74 46 -102t94 -28q47 0 86.5 27.5z" />
    <glyph glyph-name="uni0666" unicode="&#x666;" horiz-adv-x="445" 
d="M289 1q-2 94 -8 221l-6 145l-6 162l-6 5q-46 -6 -76 -6q-79 0 -164 21l6 91q70 -17 179 -17q64 0 132 6l16 -255q3 -89 11 -183.5t10 -122.5l6 -67h-94z" />
    <glyph glyph-name="uni0667" unicode="&#x667;" horiz-adv-x="526" 
d="M490 629q-40 -150 -61 -225q-76 -278 -108 -403l-105 -5q-81 324 -188 633h99q82 -257 142 -507h8q29 140 89 368l35 139h89z" />
    <glyph glyph-name="uni0668" unicode="&#x668;" horiz-adv-x="520" 
d="M25 0q111 374 171 618l101 11q52 -189 99 -336.5t101 -292.5h-98q-92 271 -152 500h-7q-57 -256 -127 -500h-88z" />
    <glyph glyph-name="uni0669" unicode="&#x669;" horiz-adv-x="451" 
d="M322 -1q-12 209 -12 276q-42 -22 -104 -22q-79 0 -131 40t-52 109q0 51 28.5 106.5t75.5 92t100 36.5q65 0 109 -57.5t49 -199.5q3 -85 8 -157t17 -220zM226 344q52 0 83 16q-4 79 -26 128.5t-75 49.5q-46 0 -76.5 -36.5t-38.5 -94.5q19 -63 133 -63z" />
    <glyph glyph-name="uni066A" unicode="&#x66a;" horiz-adv-x="556" 
d="M100 -3l-57 32l421 597q32 -10 62 -29zM30 534q33 41 81 78q41 -29 78 -80q-40 -33 -78 -74q-48 50 -81 76zM358 56q34 43 81 79q44 -32 79 -81q-41 -34 -79 -75q-41 44 -81 77z" />
    <glyph glyph-name="uni066D" unicode="&#x66d;" horiz-adv-x="412" 
d="M201 379l-78 -109l-56 43l77 109v8l-126 36l20 64l127 -35l5 4v131h72l2 -131l4 -4l127 36l19 -64l-126 -37l-1 -8l79 -108l-56 -44l-79 109h-10z" />
    <glyph glyph-name="uni066E" unicode="&#x66e;" horiz-adv-x="808" 
d="M728 367q11 -125 11 -204q0 -67 -11 -101q-48 -39 -143 -56.5t-207 -17.5q-341 0 -341 202q0 68 25 138h76q-16 -52 -16 -101q0 -51 25.5 -82.5t84.5 -47t161 -15.5q170 0 269 32q-4 96 -18 243z" />
    <glyph glyph-name="uni066F" unicode="&#x66f;" horiz-adv-x="668" 
d="M541.5 314q40.5 -31 65.5 -90t25 -140q0 -69 -13.5 -127t-32.5 -86q-32 -37 -94.5 -66.5t-166.5 -29.5q-146 0 -217 67t-71 191q0 94 31 184h74q-21 -82 -21 -155q0 -97 55.5 -143.5t171.5 -46.5q130 0 195 65q8 42 11 65q-95 2 -151 14t-84.5 43t-28.5 89q0 49 19.5 94
t57 74t87.5 29q47 0 87.5 -31zM401 107.5q46 -16.5 155 -17.5q-3 54 -20 91t-42.5 55.5t-53.5 18.5q-42 0 -63.5 -27.5t-21.5 -61.5q0 -42 46 -58.5z" />
    <glyph glyph-name="uni0670" unicode="&#x670;" horiz-adv-x="0" 
d="M241 559l-44 -4v157l46 5z" />
    <glyph glyph-name="uni0671" unicode="&#x671;" horiz-adv-x="289" 
d="M188 0h-87v595l87 9v-604zM279 775q20 -21 20 -64q0 -15 -3 -28.5t-8 -18.5q-21 -12 -116 -12q-65 0 -87 -1q-41 -2 -65 -8v33q27 16 52 19q36 51 71.5 76t78.5 25q37 0 57 -21zM233 698.5q18 0.5 23 3.5q0 24 -10 34t-33 10q-25 0 -48 -11t-48 -39l70 2q28 0 46 0.5z
" />
    <glyph glyph-name="uni067E" unicode="&#x67e;" horiz-adv-x="808" 
d="M728 367q11 -125 11 -204q0 -67 -11 -101q-48 -39 -143 -56.5t-207 -17.5q-341 0 -341 202q0 68 25 138h76q-16 -52 -16 -101q0 -51 25.5 -82.5t84.5 -47t161 -15.5q170 0 269 32q-4 96 -18 243zM276 -184q-9 42 -8 80q21 4 54 4q18 0 27 -1l-2 -80zM409 -184
q-9 42 -8 80q21 4 54 4q18 0 27 -1l-2 -80zM340 -337q-9 39 -8 76q20 4 52 4q18 0 26 -1l-2 -76z" />
    <glyph glyph-name="uni0686" unicode="&#x686;" horiz-adv-x="616" 
d="M583 368v-1l-13 -86h-4q-157 -42 -254.5 -85t-146 -94t-48.5 -117q0 -84 73 -126t195 -42q70 0 160 18l-10 -78q-86 -33 -182 -33t-168.5 30t-112 85t-39.5 129q0 112 95 195t283 149q-26 8 -38 13q-63 21 -106.5 31.5t-92.5 10.5q-58 0 -125 -31l12 89q27 13 61.5 20
t66.5 7q49 0 94 -11t107 -32q64 -21 104.5 -31t85.5 -11zM399 19q-9 39 -8 74q20 4 50 4q17 0 25 -1l-2 -74zM281 17q-9 39 -8 74q20 4 50 4q17 0 25 -1l-2 -74zM336 -101q-8 42 -7 74q20 4 50 4q17 0 25 -1l-2 -74z" />
    <glyph glyph-name="uni0698" unicode="&#x698;" horiz-adv-x="282" 
d="M-57 -225l-10 72q95 18 152 81t66 168q-7 71 -41 189l83 20q28 -104 28 -195q0 -92 -33 -169t-92.5 -122t-135.5 -45q-11 0 -17 1zM87 521q-9 41 -8 76q20 4 51 4q18 0 26 -1l-2 -76zM146 392q-9 42 -8 80q21 4 54 4q18 0 27 -1l-2 -80zM13 388q-9 42 -8 80q21 4 54 4
q18 0 27 -1l-2 -80z" />
    <glyph glyph-name="uni06A1" unicode="&#x6a1;" horiz-adv-x="821" 
d="M678.5 477q39.5 -30 64 -88.5t24.5 -138.5q0 -73 -11 -137t-25 -77q-41 -24 -140.5 -40.5t-217.5 -16.5q-336 0 -336 203q0 67 25 137h76q-16 -52 -16 -101q0 -51 25 -82.5t84 -47t160 -15.5q93 0 171.5 7.5t119.5 19.5q8 56 9 76q-91 1 -147 13t-85 42t-29 86
q0 46 19.5 90t56.5 72t87 28q46 0 85.5 -30zM540.5 277q45.5 -16 151.5 -17q-4 76 -37.5 117t-76.5 41q-41 0 -62 -26t-21 -58q0 -41 45.5 -57z" />
    <glyph glyph-name="uni06A4" unicode="&#x6a4;" horiz-adv-x="821" 
d="M678.5 477q39.5 -30 64 -88.5t24.5 -138.5q0 -73 -11 -137t-25 -77q-41 -24 -140.5 -40.5t-217.5 -16.5q-336 0 -336 203q0 67 25 137h76q-16 -52 -16 -101q0 -51 25 -82.5t84 -47t160 -15.5q93 0 171.5 7.5t119.5 19.5q8 56 9 76q-91 1 -147 13t-85 42t-29 86
q0 46 19.5 90t56.5 72t87 28q46 0 85.5 -30zM540.5 277q45.5 -16 151.5 -17q-4 76 -37.5 117t-76.5 41q-41 0 -62 -26t-21 -58q0 -41 45.5 -57zM562 723q-9 41 -8 76q20 4 51 4q18 0 26 -1l-2 -76zM621 594q-9 42 -8 80q21 4 54 4q18 0 27 -1l-2 -80zM488 590q-9 42 -8 80
q21 4 54 4q18 0 27 -1l-2 -80z" />
    <glyph glyph-name="uni06A9" unicode="&#x6a9;" horiz-adv-x="659" 
d="M104.5 30q-67.5 40 -67.5 122q0 37 16 77h75q-7 -25 -7 -52q0 -52 45.5 -73t146.5 -21q77 0 128 4t91 17q-1 74 -46 150.5t-139 159.5l-50 26l-1 59l316 245l7 -96l-210 -160v-8q202 -174 202 -368q0 -32 -6 -76q-57 -24 -132.5 -35t-180.5 -11q-120 0 -187.5 40z" />
    </font>
</defs>
</svg>
